<?xml version="1.0" standalone="no"?>
<!DOCTYPE svg PUBLIC "-//W3C//DTD SVG 1.1//EN" "http://www.w3.org/Graphics/SVG/1.1/DTD/svg11.dtd" >
<svg xmlns="http://www.w3.org/2000/svg">
<metadata>
This is a custom SVG webfont generated by Font Squirrel.
Copyright   : Generated in 2009 by FontLab Studio Copyright info pending
Designer    : Matt McInerney
Foundry     : Matt McInerney
Foundry URL : httptheleagueofmoveabletypecom
</metadata>
<defs>
<font id="webfontEXVg5s0Z" horiz-adv-x="1695" >
<font-face units-per-em="2048" ascent="1536" descent="-512" />
<missing-glyph horiz-adv-x="593" />
<glyph unicode=" "  horiz-adv-x="593" />
<glyph unicode="&#x09;" horiz-adv-x="593" />
<glyph unicode="&#xa0;" horiz-adv-x="593" />
<glyph unicode="!" horiz-adv-x="450" d="M119 0v221h221v-221h-221zM119 410v1065h221v-1065h-221z" />
<glyph unicode="&#x22;" horiz-adv-x="761" d="M121 1141v332h221v-332h-221zM422 1141v332h221v-332h-221z" />
<glyph unicode="#" horiz-adv-x="1632" d="M66 336v221h256l118 365h-311v221h381l111 325h221l-111 -325h440l111 325h221l-110 -325h174v-221h-244l-119 -365h299v-221h-368l-103 -336h-221l102 336h-440l-102 -336h-221l102 336h-186zM543 557h440l119 365h-440z" />
<glyph unicode="$" horiz-adv-x="1613" d="M70 266v86h221v-86q0 -18 13 -31.5t32 -13.5h360v406h-360q-111 0 -188.5 77.5t-77.5 188.5v315q0 111 77.5 189t188.5 78h360v221h222v-221h360q111 0 188.5 -78t77.5 -189v-86h-221v86q0 18 -13.5 31.5t-31.5 13.5h-360v-405h360q111 0 188.5 -78t77.5 -188v-316 q0 -111 -77.5 -188.5t-188.5 -77.5h-360v-221h-222v221h-360q-111 0 -188.5 77.5t-77.5 188.5zM291 893q0 -18 13 -31.5t32 -13.5h199h161v405h-360q-18 0 -31.5 -13t-13.5 -32v-315zM918 221h360q18 0 31.5 13.5t13.5 31.5v316q0 18 -13.5 31.5t-31.5 13.5h-360v-406z" />
<glyph unicode="%" horiz-adv-x="1978" d="M98 1044v164q0 111 78 189t189 78h184q111 0 188.5 -78t77.5 -189v-164q0 -111 -78 -188.5t-188 -77.5h-184q-111 0 -189 77.5t-78 188.5zM270 0v262l1444 1213h31v-263l-1444 -1212h-31zM279 1004q0 -18 13 -32t32 -14h266q18 0 31.5 13.5t13.5 32.5v245 q0 18 -13.5 31.5t-31.5 13.5h-266q-18 0 -31.5 -13t-13.5 -32v-245zM1159 264v164q0 111 78 188.5t188 77.5h185q111 0 188.5 -77.5t77.5 -188.5v-164q0 -111 -78 -188.5t-188 -77.5h-185q-111 0 -188.5 77.5t-77.5 188.5zM1339 223q0 -18 13.5 -31.5t31.5 -13.5h267 q18 0 31.5 13.5t13.5 31.5v246q0 18 -13.5 31.5t-31.5 13.5h-267q-18 0 -31.5 -13.5t-13.5 -31.5v-246z" />
<glyph unicode="&#x26;" horiz-adv-x="1921" d="M109 266v418q0 51 36.5 103.5t96.5 52.5q-51 39 -52 155v213q0 111 78 189t189 78h798q98 0 174 -63.5t93 -158.5v-145h-222v98q0 18 -13 31.5t-32 13.5h-798q-18 0 -31.5 -13t-13.5 -32v-270l950 -479v252h221v-338l260 -152v-213l-280 160q-29 -74 -95.5 -120 t-150.5 -46h-942q-111 0 -188.5 77.5t-77.5 188.5zM330 266q0 -18 13 -31.5t32 -13.5h942q29 0 39 25l-959 483h-22q-18 0 -31.5 -13.5t-13.5 -31.5v-418z" />
<glyph unicode="'" horiz-adv-x="458" d="M121 1141v332h221v-332h-221z" />
<glyph unicode="(" horiz-adv-x="567" d="M106 266v942q0 111 78 189t189 78h86v-222h-86q-18 0 -31.5 -13t-13.5 -32v-942q0 -18 13 -31.5t32 -13.5h86v-221h-86q-111 0 -189 77.5t-78 188.5z" />
<glyph unicode=")" horiz-adv-x="569" d="M115 0v221h86q18 0 31.5 13.5t13.5 31.5v942q0 18 -13.5 31.5t-31.5 13.5h-86v222h86q109 0 187.5 -78t78.5 -189v-942q0 -111 -79 -188.5t-187 -77.5h-86z" />
<glyph unicode="*" horiz-adv-x="1005" d="M51 1065l68 211l272 -90v287h221v-287l273 90l69 -211l-272 -88l168 -234l-178 -129l-170 232l-168 -232l-178 129l168 234z" />
<glyph unicode="+" horiz-adv-x="886" d="M35 496v221h295v297h221v-297h303v-221h-303v-301h-221v301h-295z" />
<glyph unicode="," horiz-adv-x="395" d="M111 221h221v-221q0 -98 -63.5 -172t-157.5 -90v483z" />
<glyph unicode="-" horiz-adv-x="1058" d="M121 496v221h819v-221h-819z" />
<glyph unicode="." horiz-adv-x="438" d="M111 0v221h221v-221h-221z" />
<glyph unicode="/" horiz-adv-x="1067" d="M12 0v262l1014 1213h31v-263l-1014 -1212h-31z" />
<glyph unicode="0" horiz-adv-x="1708" d="M117 266v942q0 111 77.5 189t188.5 78h942q111 0 188.5 -78t77.5 -189v-942q0 -111 -77.5 -188.5t-188.5 -77.5h-942q-111 0 -188.5 77.5t-77.5 188.5zM338 449l958 804h-913q-18 0 -31.5 -13t-13.5 -32v-759zM412 221h913q18 0 31.5 13.5t13.5 31.5v760z" />
<glyph unicode="1" horiz-adv-x="800" d="M2 977l416 498h264v-1475h-221v1180l-170 -203h-289z" />
<glyph unicode="2" horiz-adv-x="1699" d="M117 0v561q0 111 77.5 188.5t188.5 77.5h942q18 0 31.5 13.5t13.5 31.5v336q0 18 -13.5 31.5t-31.5 13.5h-942q-18 0 -31.5 -13t-13.5 -32v-86h-221v86q0 111 77.5 189t188.5 78h942q111 0 188.5 -78t77.5 -189v-336q0 -111 -77.5 -188.5t-188.5 -77.5h-942 q-18 0 -31.5 -13t-13.5 -32v-295q0 -18 13.5 -31.5t31.5 -13.5h1208v-221h-1474z" />
<glyph unicode="3" horiz-adv-x="1691" d="M109 266v62h221v-62q0 -18 13 -31.5t32 -13.5h942q18 0 31.5 13.5t13.5 31.5v330q0 18 -13.5 31.5t-31.5 13.5h-942v221h880q18 0 31.5 13.5t13.5 31.5v301q0 18 -13 31.5t-32 13.5h-880q-18 0 -31.5 -13t-13.5 -32v-82h-221v82q0 111 77.5 189t188.5 78h880 q111 0 189 -78t78 -189v-301q0 -57 -27 -114q88 -78 88 -197v-330q0 -111 -78 -188.5t-188 -77.5h-942q-111 0 -188.5 77.5t-77.5 188.5z" />
<glyph unicode="4" horiz-adv-x="1495" d="M12 375v221l975 879h221v-879h217v-221h-217v-375h-221v375h-975zM334 596h653v530z" />
<glyph unicode="5" horiz-adv-x="1699" d="M117 266v86h221v-86q0 -18 13.5 -31.5t31.5 -13.5h942q18 0 31.5 13.5t13.5 31.5v336q0 18 -13.5 31.5t-31.5 13.5h-1208v221h4q-4 29 -4 45v562h1474v-222h-1208q-18 0 -31.5 -13t-13.5 -32v-295q0 -18 13.5 -31.5t31.5 -13.5h942q111 0 188.5 -77.5t77.5 -188.5v-336 q0 -111 -77.5 -188.5t-188.5 -77.5h-942q-111 0 -188.5 77.5t-77.5 188.5z" />
<glyph unicode="6" horiz-adv-x="1679" d="M117 266v942q0 111 77.5 189t188.5 78h963v-222h-963q-18 0 -31.5 -13t-13.5 -32v-295q0 -18 13.5 -31.5t31.5 -13.5h696h246q111 0 188.5 -77.5t77.5 -188.5v-336q0 -111 -77.5 -188.5t-188.5 -77.5h-942q-111 0 -188.5 77.5t-77.5 188.5zM338 266q0 -18 13.5 -31.5 t31.5 -13.5h942q18 0 31.5 13.5t13.5 31.5v336q0 18 -13.5 31.5t-31.5 13.5h-987v-381z" />
<glyph unicode="7" horiz-adv-x="1351" d="M6 1253v222h21h942q111 0 188.5 -78t77.5 -189v-1208h-221v1208q0 18 -13.5 31.5t-31.5 13.5h-963z" />
<glyph unicode="8" horiz-adv-x="1708" d="M117 266v336q0 88 51 156q-51 68 -51 155v295q0 111 77.5 189t188.5 78h942q98 0 174 -63.5t92 -158.5v-340q0 -88 -51 -155q51 -68 51 -156v-336q0 -111 -77.5 -188.5t-188.5 -77.5h-942q-111 0 -188.5 77.5t-77.5 188.5zM338 266q0 -18 13.5 -31.5t31.5 -13.5h942 q18 0 31.5 13.5t13.5 31.5v336q0 18 -13.5 31.5t-31.5 13.5h-942q-18 0 -31.5 -13t-13.5 -32v-336zM338 891q0 -18 13.5 -31.5t31.5 -13.5h942q18 0 31.5 13t13.5 32v315q0 18 -13.5 31.5t-31.5 13.5h-942q-18 0 -31.5 -13t-13.5 -32v-315z" />
<glyph unicode="9" d="M104 872v336q0 111 78 189t189 78h942q111 0 188.5 -78t77.5 -189v-942q0 -111 -78 -188.5t-188 -77.5h-942q-98 0 -172 63.5t-90 157.5h1204q18 0 31.5 13.5t13.5 31.5v295q0 18 -13.5 31.5t-31.5 13.5h-697h-245q-111 0 -189 77.5t-78 188.5zM326 872q0 -18 13 -31.5 t32 -13.5h987v381q0 18 -13.5 31.5t-31.5 13.5h-942q-18 0 -31.5 -13t-13.5 -32v-336z" />
<glyph unicode=":" horiz-adv-x="438" d="M111 0v221h221v-221h-221zM111 983v221h221v-221h-221z" />
<glyph unicode=";" horiz-adv-x="395" d="M104 221h222v-221q0 -98 -63.5 -172t-158.5 -90v483zM104 983v221h222v-221h-222z" />
<glyph unicode="&#x3c;" horiz-adv-x="968" d="M10 496v221l842 485v-256l-592 -340l592 -342v-256z" />
<glyph unicode="=" horiz-adv-x="1306" d="M121 293v221h1065v-221h-1065zM121 682v221h1065v-221h-1065z" />
<glyph unicode="&#x3e;" horiz-adv-x="972" d="M121 4v256l592 342l-592 340v256l842 -485v-221z" />
<glyph unicode="?" horiz-adv-x="1388" d="M63 1253v222h1018q111 0 189 -78t78 -189v-377q0 -111 -78 -188.5t-189 -77.5h-530q-18 0 -31.5 -13t-13.5 -32v-112h-221v112q0 111 77.5 188.5t188.5 77.5h530q18 0 31.5 13.5t13.5 31.5v377q0 18 -13 31.5t-32 13.5h-1018zM285 0v221h221v-221h-221z" />
<glyph unicode="@" horiz-adv-x="1701" d="M117 266v942q0 111 77.5 189t188.5 78h942q111 0 188.5 -78t77.5 -189v-819h-829q-111 0 -188.5 78t-77.5 188v164q0 111 77.5 188.5t188.5 77.5h184q111 0 188.5 -77.5t77.5 -188.5v-250h158v639q0 18 -13.5 31.5t-31.5 13.5h-942q-18 0 -31.5 -13t-13.5 -32v-942 q0 -18 13.5 -31.5t31.5 -13.5h1208v-221h-1208q-111 0 -188.5 77.5t-77.5 188.5zM676 614q0 -18 13 -31.5t32 -13.5h311v291q0 18 -13 31.5t-32 13.5h-266q-18 0 -31.5 -13t-13.5 -32v-246z" />
<glyph unicode="A" horiz-adv-x="1712" d="M119 0v1208q0 111 77.5 189t188.5 78h942q111 0 188.5 -78t77.5 -189v-1208h-221v516h-1032v-516h-221zM340 737h1032v471q0 18 -13 31.5t-32 13.5h-942q-18 0 -31.5 -13t-13.5 -32v-471z" />
<glyph unicode="B" horiz-adv-x="1703" d="M121 0v1475h1147q111 0 188.5 -78t77.5 -189v-301q0 -57 -27 -114q88 -78 88 -197v-330q0 -111 -77.5 -188.5t-188.5 -77.5h-1208zM342 266q0 -18 13.5 -31.5t31.5 -13.5h942q18 0 31.5 13.5t13.5 31.5v330q0 18 -13 31.5t-32 13.5h-942q-18 0 -31.5 -13.5t-13.5 -31.5 v-330zM342 907q0 -18 13.5 -31.5t31.5 -13.5h881q18 0 31.5 13.5t13.5 31.5v301q0 18 -13.5 31.5t-31.5 13.5h-881q-18 0 -31.5 -13t-13.5 -32v-301z" />
<glyph unicode="C" horiz-adv-x="1683" d="M115 266v942q0 111 77.5 189t188.5 78h1204v-222h-1204q-18 0 -31.5 -13t-13.5 -32v-942q0 -18 13 -31.5t32 -13.5h1204v-221h-1204q-111 0 -188.5 77.5t-77.5 188.5z" />
<glyph unicode="D" horiz-adv-x="1708" d="M119 0v1475h1208q111 0 188.5 -78t77.5 -189v-942q0 -111 -77.5 -188.5t-188.5 -77.5h-1208zM340 266q0 -18 13.5 -31.5t31.5 -13.5h942q18 0 31.5 13.5t13.5 31.5v942q0 18 -13 31.5t-32 13.5h-942q-18 0 -31.5 -13t-13.5 -32v-942z" />
<glyph unicode="E" horiz-adv-x="1568" d="M119 0v1475h1351v-222h-1130v-405h909v-221h-909v-406h1130v-221h-1351z" />
<glyph unicode="F" horiz-adv-x="1480" d="M119 0v1475h1351v-222h-1130v-405h909v-221h-909v-627h-221z" />
<glyph unicode="G" horiz-adv-x="1699" d="M115 266v942q0 111 77.5 189t188.5 78h942q111 0 188.5 -78t77.5 -189v-88h-221v88q0 18 -13.5 31.5t-31.5 13.5h-942q-18 0 -31.5 -13t-13.5 -32v-942q0 -18 13 -31.5t32 -13.5h942q18 0 31.5 13.5t13.5 31.5v320h-348v221h569v-541q0 -111 -77.5 -188.5t-188.5 -77.5 h-942q-111 0 -188.5 77.5t-77.5 188.5z" />
<glyph unicode="H" horiz-adv-x="1742" d="M117 0v1475h221v-627h1067v627h221v-1475h-221v627h-1067v-627h-221z" />
<glyph unicode="I" horiz-adv-x="450" d="M117 0v1475h221v-1475h-221z" />
<glyph unicode="J" horiz-adv-x="1597" d="M8 266v144h221v-144q0 -18 13.5 -31.5t31.5 -13.5h943q18 0 31.5 13.5t13.5 31.5v1209h221v-1209q0 -111 -78 -188.5t-188 -77.5h-943q-111 0 -188.5 77.5t-77.5 188.5z" />
<glyph unicode="K" horiz-adv-x="1632" d="M117 0v1475h221v-627h410l526 627h262v-31l-592 -707l592 -706v-31h-262l-526 627h-410v-627h-221z" />
<glyph unicode="L" horiz-adv-x="1595" d="M117 0v1477h221v-1256h1253v-221h-1474z" />
<glyph unicode="M" horiz-adv-x="1900" d="M115 0v1475h262l573 -682l572 682h264v-1475h-221v1180l-615 -731l-614 731v-1180h-221z" />
<glyph unicode="N" horiz-adv-x="1703" d="M115 0v1475h262l991 -1180v1180h221v-1475h-262l-991 1180v-1180h-221z" />
<glyph unicode="O" d="M111 266v942q0 111 77.5 189t188.5 78h942q111 0 188.5 -78t77.5 -189v-942q0 -111 -77.5 -188.5t-188.5 -77.5h-942q-111 0 -188.5 77.5t-77.5 188.5zM332 266q0 -18 13 -31.5t32 -13.5h942q18 0 31.5 13.5t13.5 31.5v942q0 18 -13.5 31.5t-31.5 13.5h-942 q-18 0 -31.5 -13t-13.5 -32v-942z" />
<glyph unicode="P" horiz-adv-x="1619" d="M115 0v1473h1208q111 0 188.5 -79t77.5 -188v-413q0 -109 -77.5 -188t-188.5 -79h-942q-16 0 -45 4v-530h-221zM336 793q0 -18 13 -31.5t32 -13.5h942q18 0 31.5 13t13.5 32v413q0 18 -13.5 31.5t-31.5 13.5h-942q-18 0 -31.5 -13t-13.5 -32v-413z" />
<glyph unicode="Q" horiz-adv-x="1810" d="M111 266v942q0 111 77.5 189t188.5 78h942q111 0 188.5 -78t77.5 -189v-942q0 -16 -4 -45h188v-221h-1392q-111 0 -188.5 77.5t-77.5 188.5zM332 266q0 -18 13 -31.5t32 -13.5h942q18 0 31.5 13.5t13.5 31.5v942q0 18 -13.5 31.5t-31.5 13.5h-942q-18 0 -31.5 -13 t-13.5 -32v-942z" />
<glyph unicode="R" horiz-adv-x="1689" d="M113 0v1473h1208q111 0 188.5 -79t77.5 -188v-413q0 -109 -77.5 -188t-188.5 -79h-150l416 -495v-31h-262l-442 526h-504q-16 0 -45 4v-530h-221zM334 793q0 -18 13 -31.5t32 -13.5h942q18 0 31.5 13t13.5 32v413q0 18 -13.5 31.5t-31.5 13.5h-942q-18 0 -31.5 -13 t-13.5 -32v-413z" />
<glyph unicode="S" horiz-adv-x="1683" d="M104 266v86h222v-86q0 -18 13 -31.5t32 -13.5h942q18 0 31.5 13.5t13.5 31.5v316q0 18 -13.5 31.5t-31.5 13.5h-942q-111 0 -189 77.5t-78 188.5v315q0 111 78 189t189 78h942q111 0 188.5 -78t77.5 -189v-86h-221v86q0 18 -13.5 31.5t-31.5 13.5h-942q-18 0 -31.5 -13 t-13.5 -32v-315q0 -18 13 -31.5t32 -13.5h942q111 0 188.5 -78t77.5 -188v-316q0 -111 -78 -188.5t-188 -77.5h-942q-111 0 -189 77.5t-78 188.5z" />
<glyph unicode="T" horiz-adv-x="1554" d="M41 1253v222h1475v-222h-627v-1253h-221v1253h-627z" />
<glyph unicode="U" d="M111 266v1209h221v-1209q0 -18 13 -31.5t32 -13.5h942q18 0 31.5 13.5t13.5 31.5v1209h221v-1209q0 -111 -77.5 -188.5t-188.5 -77.5h-942q-111 0 -188.5 77.5t-77.5 188.5z" />
<glyph unicode="V" horiz-adv-x="2054" d="M72 1475h256l706 -1225l707 1225h254l-850 -1475h-221z" />
<glyph unicode="W" horiz-adv-x="2414" d="M72 1475h235l391 -1076l392 1076h235l391 -1076l391 1076h236l-537 -1475h-180l-420 1149l-418 -1149l-4 2l2 -2h-178z" />
<glyph unicode="X" horiz-adv-x="1662" d="M94 0v31l592 706l-592 707v31h262l475 -566l476 566h262v-31l-594 -707l594 -706v-31h-262l-476 565l-475 -565h-262z" />
<glyph unicode="Y" horiz-adv-x="1650" d="M35 1475h260l530 -672l529 672h262l-680 -922v-553h-221v553z" />
<glyph unicode="Z" horiz-adv-x="1681" d="M104 0v262l1180 991h-1180v222h1475v-263l-1180 -991h1180v-221h-1475z" />
<glyph unicode="[" horiz-adv-x="563" d="M111 0v1475h352v-222h-131v-1032h131v-221h-352z" />
<glyph unicode="\" horiz-adv-x="1064" d="M10 1212v263h31l1014 -1213v-262h-31z" />
<glyph unicode="]" horiz-adv-x="565" d="M104 0v221h132v1032h-132v222h353v-1475h-353z" />
<glyph unicode="_" d="M111 0h1474v-221h-1474v221z" />
<glyph unicode="`" horiz-adv-x="436" d="M66 2025h221l82 -331h-222z" />
<glyph unicode="a" horiz-adv-x="1421" d="M106 266v439h988v217q0 18 -13.5 31.5t-31.5 13.5h-943v221h943q111 0 188.5 -78t77.5 -188v-922h-942q-111 0 -189 77.5t-78 188.5zM328 266q0 -18 13 -31.5t32 -13.5h721v262h-766v-217z" />
<glyph unicode="b" horiz-adv-x="1366" d="M111 0v1577h221v-389h721q111 0 188.5 -78t77.5 -188v-656q0 -111 -78 -188.5t-188 -77.5h-942zM332 266q0 -18 13 -31.5t32 -13.5h676q18 0 31.5 13.5t13.5 31.5v656q0 18 -13.5 31.5t-31.5 13.5h-676q-18 0 -31.5 -13.5t-13.5 -31.5v-656z" />
<glyph unicode="c" horiz-adv-x="1423" d="M104 266v656q0 111 78 188.5t189 77.5h938v-221h-938q-18 0 -31.5 -13.5t-13.5 -31.5v-656q0 -18 13 -31.5t32 -13.5h942v-221h-942q-111 0 -189 77.5t-78 188.5z" />
<glyph unicode="d" horiz-adv-x="1366" d="M47 266v656q0 111 78 188.5t188 77.5h721v389h221v-1577h-942q-111 0 -188.5 77.5t-77.5 188.5zM268 266q0 -18 13.5 -31.5t31.5 -13.5h676q18 0 31.5 13.5t13.5 31.5v656q0 18 -13 31.5t-32 13.5h-676q-18 0 -31.5 -13.5t-13.5 -31.5v-656z" />
<glyph unicode="e" horiz-adv-x="1417" d="M104 266v656q0 111 78 188.5t189 77.5h676q111 0 188.5 -78t77.5 -188v-439h-987v-217q0 -18 13 -31.5t32 -13.5h942v-221h-942q-111 0 -189 77.5t-78 188.5zM326 705h766v217q0 18 -13.5 31.5t-31.5 13.5h-676q-18 0 -31.5 -13.5t-13.5 -31.5v-217z" />
<glyph unicode="f" horiz-adv-x="833" d="M109 0v655v656q0 111 77.5 188.5t188.5 77.5h442v-221h-442q-18 0 -31.5 -13.5t-13.5 -31.5v-123h487v-221h-487v-967h-221z" />
<glyph unicode="g" horiz-adv-x="1398" d="M84 266v656q0 111 78 188.5t188 77.5h676q111 0 188.5 -78t77.5 -188v-469v-2v-656q0 -111 -77.5 -188.5t-188.5 -77.5h-733v221h733q18 0 31.5 13.5t13.5 31.5v205h-721q-111 0 -188.5 77.5t-77.5 188.5zM305 266q0 -18 13.5 -31.5t31.5 -13.5h676q18 0 31.5 13.5 t13.5 31.5v656q0 18 -13.5 31.5t-31.5 13.5h-676q-18 0 -31.5 -13.5t-13.5 -31.5v-656z" />
<glyph unicode="h" horiz-adv-x="1368" d="M111 0v1577h221v-389h721q109 0 187.5 -78t78.5 -188v-922h-221v922q0 18 -13.5 31.5t-31.5 13.5h-676q-18 0 -31.5 -13.5t-13.5 -31.5v-922h-221z" />
<glyph unicode="i" horiz-adv-x="425" d="M106 0v1188h222v-1188h-222zM106 1356v221h222v-221h-222z" />
<glyph unicode="j" horiz-adv-x="489" d="M-383 -250h508q18 0 31.5 13.5t13.5 31.5v1389h221v-733v-656q0 -111 -77.5 -188.5t-188.5 -77.5h-508v221zM170 1356v221h221v-221h-221z" />
<glyph unicode="k" horiz-adv-x="1323" d="M111 0v1577h221v-872h266l444 483h263v-31l-510 -563l510 -563v-31h-263l-444 483h-266v-483h-221z" />
<glyph unicode="l" horiz-adv-x="618" d="M106 266v656v655h222v-1311q0 -18 13 -31.5t32 -13.5h221v-221h-221q-111 0 -189 77.5t-78 188.5z" />
<glyph unicode="m" horiz-adv-x="2002" d="M111 0v1188h1517q111 0 188.5 -78t77.5 -188v-922h-219v922q0 18 -13 31.5t-34 13.5h-469q-18 0 -31.5 -13.5t-13.5 -31.5v-922h-221v922q0 18 -13.5 31.5t-31.5 13.5h-471q-18 0 -31.5 -13.5t-13.5 -31.5v-922h-221z" />
<glyph unicode="n" horiz-adv-x="1425" d="M111 0v1188h942q111 0 188.5 -78t77.5 -188v-922h-221v922q0 18 -13.5 31.5t-31.5 13.5h-676q-18 0 -31.5 -13.5t-13.5 -31.5v-922h-221z" />
<glyph unicode="o" horiz-adv-x="1417" d="M104 266v656q0 111 78 188.5t189 77.5h676q111 0 188.5 -78t77.5 -188v-656q0 -111 -78 -188.5t-188 -77.5h-676q-111 0 -189 77.5t-78 188.5zM326 266q0 -18 13 -31.5t32 -13.5h676q18 0 31.5 13.5t13.5 31.5v656q0 18 -13.5 31.5t-31.5 13.5h-676q-18 0 -31.5 -13.5 t-13.5 -31.5v-656z" />
<glyph unicode="p" horiz-adv-x="1359" d="M111 -471v1659h942q111 0 188.5 -78t77.5 -188v-656q0 -111 -78 -188.5t-188 -77.5h-721v-471h-221zM332 266q0 -18 13 -31.5t32 -13.5h676q18 0 31.5 13.5t13.5 31.5v656q0 18 -13.5 31.5t-31.5 13.5h-676q-18 0 -31.5 -13.5t-13.5 -31.5v-656z" />
<glyph unicode="q" horiz-adv-x="1359" d="M41 266v656q0 111 78 188.5t188 77.5h942v-1659h-221v471h-721q-111 0 -188.5 77.5t-77.5 188.5zM262 266q0 -18 13.5 -31.5t31.5 -13.5h676q18 0 31.5 13.5t13.5 31.5v656q0 18 -13.5 31.5t-31.5 13.5h-676q-18 0 -31.5 -13.5t-13.5 -31.5v-656z" />
<glyph unicode="r" horiz-adv-x="1048" d="M106 0v266v656q0 111 78 188.5t189 77.5h663v-221h-663q-18 0 -31.5 -13.5t-13.5 -31.5v-922h-222z" />
<glyph unicode="s" horiz-adv-x="1404" d="M98 266v45h221v-45q0 -18 13.5 -31.5t32.5 -13.5h675q18 0 31.5 13.5t13.5 31.5v172q0 18 -13 31.5t-32 13.5h-675q-111 0 -189 78t-78 189v172q0 111 78 188.5t189 77.5h675q111 0 189 -78t78 -188v-45h-222v45q0 18 -13 31.5t-32 13.5h-675q-18 0 -32 -13.5t-14 -31.5 v-172q0 -18 13.5 -31.5t32.5 -13.5h675q111 0 189 -78t78 -189v-172q0 -111 -78 -188.5t-189 -77.5h-675q-111 0 -189 77.5t-78 188.5z" />
<glyph unicode="t" horiz-adv-x="839" d="M109 266v656v655h221v-389h487v-221h-487v-701q0 -18 13 -31.5t32 -13.5h442v-221h-442q-111 0 -188.5 77.5t-77.5 188.5z" />
<glyph unicode="u" horiz-adv-x="1423" d="M109 266v922h221v-922q0 -18 13 -31.5t32 -13.5h676q18 0 31.5 13.5t13.5 31.5v922h221v-922q0 -111 -78 -188.5t-188 -77.5h-676q-111 0 -188.5 77.5t-77.5 188.5z" />
<glyph unicode="v" horiz-adv-x="1617" d="M43 1188h256l510 -938l512 938h254l-655 -1188h-222z" />
<glyph unicode="w" horiz-adv-x="2170" d="M72 1188h235l322 -789l342 789h252l362 -789l301 789h236l-447 -1188h-180l-399 883l-377 -883l-4 2l2 -2h-178z" />
<glyph unicode="x" horiz-adv-x="1417" d="M94 0v31l469 573l-469 553v31h262l353 -412l352 412h262v-31l-471 -553l471 -573v-31h-262l-352 432l-353 -432h-262z" />
<glyph unicode="y" horiz-adv-x="1402" d="M86 266v918h221v-918q0 -18 13.5 -31.5t31.5 -13.5h676q18 0 31.5 13.5t13.5 31.5v918h221v-729v-4v-656q0 -111 -77.5 -188.5t-188.5 -77.5h-733v221h733q18 0 31.5 13.5t13.5 31.5v205h-721q-111 0 -188.5 77.5t-77.5 188.5z" />
<glyph unicode="z" horiz-adv-x="1429" d="M111 0v262l913 705h-913v221h1208v-262l-913 -705h913v-221h-1208z" />
<glyph unicode="{" horiz-adv-x="591" d="M47 639v221l90 51v297q0 111 78 189t188 78h86v-222h-86q-18 0 -31.5 -13t-13.5 -32v-346l-143 -112l143 -119v-365q0 -18 13.5 -31.5t31.5 -13.5h86v-221h-86q-111 0 -188.5 78t-77.5 188v320z" />
<glyph unicode="|" horiz-adv-x="438" d="M111 -223v1919h221v-1919h-221z" />
<glyph unicode="}" horiz-adv-x="591" d="M104 0v221h86q18 0 32 13.5t14 31.5v365l143 119l-143 112v346q0 18 -13.5 31.5t-32.5 13.5h-86v222h86q111 0 189 -78t78 -189v-297l90 -51v-221l-90 -53v-320q0 -111 -78 -188.5t-189 -77.5h-86z" />
<glyph unicode="~" horiz-adv-x="827" d="M49 567v154q68 29 152 29q80 0 210 -66t199 -74q80 0 160 54v-152q-86 -37 -160 -37q-72 0 -200.5 69.5t-208.5 69.5q-123 0 -152 -47z" />
<glyph unicode="&#xa1;" horiz-adv-x="430" d="M109 0v1065h221v-1065h-221zM109 1253v222h221v-222h-221z" />
<glyph unicode="&#xa2;" horiz-adv-x="1302" d="M68 266v676q0 111 77.5 188.5t188.5 77.5h227v262h221v-262h490v-221h-490v-766h490v-221h-490v-223h-221v223h-227q-111 0 -188.5 77.5t-77.5 188.5zM289 266q0 -18 13 -31.5t32 -13.5h227v766h-227q-18 0 -31.5 -13t-13.5 -32v-676z" />
<glyph unicode="&#xa3;" horiz-adv-x="1503" d="M80 0v221h205v406h-205v221h205v360q0 111 77.5 189t188.5 78h590q111 0 188.5 -78t77.5 -189v-61h-221v61q0 18 -13.5 31.5t-31.5 13.5h-590q-18 0 -31.5 -13t-13.5 -32v-360h684v-221h-684v-406h901v-221h-1327z" />
<glyph unicode="&#xa8;" horiz-adv-x="788" d="M111 1694v221h221v-221h-221zM459 1694v221h221v-221h-221z" />
<glyph unicode="&#xaa;" horiz-adv-x="1421" d="M106 266v439h988v217q0 18 -13.5 31.5t-31.5 13.5h-943v221h943q111 0 188.5 -78t77.5 -188v-922h-942q-111 0 -189 77.5t-78 188.5zM328 266q0 -18 13 -31.5t32 -13.5h721v262h-766v-217z" />
<glyph unicode="&#xad;" horiz-adv-x="1058" d="M121 496v221h819v-221h-819z" />
<glyph unicode="&#xb0;" horiz-adv-x="899" d="M92 1044v164q0 111 78 189t188 78h185q111 0 188.5 -78t77.5 -189v-164q0 -111 -78 -188.5t-188 -77.5h-185q-111 0 -188.5 77.5t-77.5 188.5zM272 1004q0 -18 13.5 -32t31.5 -14h267q18 0 31.5 13.5t13.5 32.5v245q0 18 -13.5 31.5t-31.5 13.5h-267q-18 0 -31.5 -13 t-13.5 -32v-245z" />
<glyph unicode="&#xb2;" horiz-adv-x="1699" d="M117 0v561q0 111 77.5 188.5t188.5 77.5h942q18 0 31.5 13.5t13.5 31.5v336q0 18 -13.5 31.5t-31.5 13.5h-942q-18 0 -31.5 -13t-13.5 -32v-86h-221v86q0 111 77.5 189t188.5 78h942q111 0 188.5 -78t77.5 -189v-336q0 -111 -77.5 -188.5t-188.5 -77.5h-942 q-18 0 -31.5 -13t-13.5 -32v-295q0 -18 13.5 -31.5t31.5 -13.5h1208v-221h-1474z" />
<glyph unicode="&#xb3;" horiz-adv-x="1691" d="M109 266v62h221v-62q0 -18 13 -31.5t32 -13.5h942q18 0 31.5 13.5t13.5 31.5v330q0 18 -13.5 31.5t-31.5 13.5h-942v221h880q18 0 31.5 13.5t13.5 31.5v301q0 18 -13 31.5t-32 13.5h-880q-18 0 -31.5 -13t-13.5 -32v-82h-221v82q0 111 77.5 189t188.5 78h880 q111 0 189 -78t78 -189v-301q0 -57 -27 -114q88 -78 88 -197v-330q0 -111 -78 -188.5t-188 -77.5h-942q-111 0 -188.5 77.5t-77.5 188.5z" />
<glyph unicode="&#xb4;" horiz-adv-x="436" d="M68 1694l82 331h221l-82 -331h-221z" />
<glyph unicode="&#xb6;" horiz-adv-x="1705" d="M115 793v413q0 109 77.5 188t188.5 79h1208v-1473h-221v526h-207v-526h-221v526h-559q-111 0 -188.5 79t-77.5 188zM336 793q0 -18 13 -31.5t32 -13.5h559v503h-559q-18 0 -31.5 -13t-13.5 -32v-413zM1161 748h207v503h-207v-503z" />
<glyph unicode="&#xb8;" horiz-adv-x="436" d="M68 -332l82 332h221l-82 -332h-221z" />
<glyph unicode="&#xb9;" horiz-adv-x="800" d="M2 977l416 498h264v-1475h-221v1180l-170 -203h-289z" />
<glyph unicode="&#xba;" horiz-adv-x="1417" d="M104 266v656q0 111 78 188.5t189 77.5h676q111 0 188.5 -78t77.5 -188v-656q0 -111 -78 -188.5t-188 -77.5h-676q-111 0 -189 77.5t-78 188.5zM326 266q0 -18 13 -31.5t32 -13.5h676q18 0 31.5 13.5t13.5 31.5v656q0 18 -13.5 31.5t-31.5 13.5h-676q-18 0 -31.5 -13.5 t-13.5 -31.5v-656z" />
<glyph unicode="&#xbf;" horiz-adv-x="1382" d="M39 266v377q0 111 78 188.5t188 77.5h531q18 0 31.5 13.5t13.5 31.5v125h221v-125q0 -111 -78 -188.5t-188 -77.5h-531q-18 0 -31.5 -13t-13.5 -32v-377q0 -18 13.5 -31.5t31.5 -13.5h1018v-221h-1018q-111 0 -188.5 77.5t-77.5 188.5zM881 1253v222h221v-222h-221z" />
<glyph unicode="&#xc0;" horiz-adv-x="1712" d="M119 0v1208q0 111 77.5 189t188.5 78h942q111 0 188.5 -78t77.5 -189v-1208h-221v516h-1032v-516h-221zM340 737h1032v471q0 18 -13 31.5t-32 13.5h-942q-18 0 -31.5 -13t-13.5 -32v-471zM705 2011h221l82 -332h-222z" />
<glyph unicode="&#xc1;" horiz-adv-x="1712" d="M119 0v1208q0 111 77.5 189t188.5 78h942q111 0 188.5 -78t77.5 -189v-1208h-221v516h-1032v-516h-221zM340 737h1032v471q0 18 -13 31.5t-32 13.5h-942q-18 0 -31.5 -13t-13.5 -32v-471zM705 1677l81 332h222l-82 -332h-221z" />
<glyph unicode="&#xc2;" horiz-adv-x="1712" d="M119 0v1208q0 111 77.5 189t188.5 78h942q111 0 188.5 -78t77.5 -189v-1208h-221v516h-1032v-516h-221zM340 737h1032v471q0 18 -13 31.5t-32 13.5h-942q-18 0 -31.5 -13t-13.5 -32v-471zM606 1677l174 289h152l174 -289h-154l-96 156l-98 -156h-152z" />
<glyph unicode="&#xc3;" horiz-adv-x="1712" d="M119 0v1208q0 111 77.5 189t188.5 78h942q111 0 188.5 -78t77.5 -189v-1208h-221v516h-1032v-516h-221zM340 737h1032v471q0 18 -13 31.5t-32 13.5h-942q-18 0 -31.5 -13t-13.5 -32v-471zM496 1780v153q68 29 151 29q80 0 210 -65.5t200 -73.5q80 0 160 53v-152 q-86 -37 -160 -36q-72 0 -201 69.5t-209 69.5q-122 0 -151 -47z" />
<glyph unicode="&#xc4;" horiz-adv-x="1712" d="M119 0v1208q0 111 77.5 189t188.5 78h942q111 0 188.5 -78t77.5 -189v-1208h-221v516h-1032v-516h-221zM340 737h1032v471q0 18 -13 31.5t-32 13.5h-942q-18 0 -31.5 -13t-13.5 -32v-471zM571 1659v221h222v-221h-222zM920 1659v221h221v-221h-221z" />
<glyph unicode="&#xc5;" horiz-adv-x="1712" d="M119 0v1208q0 111 77.5 189t188.5 78h942q111 0 188.5 -78t77.5 -189v-1208h-221v516h-1032v-516h-221zM340 737h1032v471q0 18 -13 31.5t-32 13.5h-942q-18 0 -31.5 -13t-13.5 -32v-471zM688 1790v111q0 45 33 76.5t78 31.5h114q45 0 78 -31.5t33 -76.5v-111 q0 -45 -33 -77t-78 -32h-114q-45 0 -78 32t-33 77zM770 1784q0 -20 18 -21h136q18 0 18 21v123q0 20 -18 20h-136q-18 0 -18 -20v-123z" />
<glyph unicode="&#xc6;" horiz-adv-x="2816" d="M111 0v1208q0 111 77.5 189t188.5 78h2339v-222h-1131v-405h909v-221h-909v-406h1131v-221h-1352v516h-1032v-516h-221zM332 737h1032v471q0 18 -13.5 31.5t-31.5 13.5h-942q-18 0 -31.5 -13t-13.5 -32v-471z" />
<glyph unicode="&#xc7;" horiz-adv-x="1683" d="M115 266v942q0 111 77.5 189t188.5 78h1204v-222h-1204q-18 0 -31.5 -13t-13.5 -32v-942q0 -18 13 -31.5t32 -13.5h1204v-221h-592l-82 -332h-221l82 332h-391q-111 0 -188.5 77.5t-77.5 188.5z" />
<glyph unicode="&#xc8;" horiz-adv-x="1568" d="M119 0v1475h1351v-222h-1130v-405h909v-221h-909v-406h1130v-221h-1351zM633 2011h221l82 -332h-221z" />
<glyph unicode="&#xc9;" horiz-adv-x="1568" d="M119 0v1475h1351v-222h-1130v-405h909v-221h-909v-406h1130v-221h-1351zM633 1679l82 332h221l-82 -332h-221z" />
<glyph unicode="&#xca;" horiz-adv-x="1568" d="M119 0v1475h1351v-222h-1130v-405h909v-221h-909v-406h1130v-221h-1351zM535 1677l174 289h151l174 -289h-153l-97 156l-98 -156h-151z" />
<glyph unicode="&#xcb;" horiz-adv-x="1568" d="M119 0v1475h1351v-222h-1130v-405h909v-221h-909v-406h1130v-221h-1351zM500 1679v222h221v-222h-221zM848 1679v222h221v-222h-221z" />
<glyph unicode="&#xcc;" horiz-adv-x="450" d="M74 2011h221l82 -332h-221zM117 0v1475h221v-1475h-221z" />
<glyph unicode="&#xcd;" horiz-adv-x="450" d="M74 1679l82 332h221l-82 -332h-221zM117 0v1475h221v-1475h-221z" />
<glyph unicode="&#xce;" horiz-adv-x="450" d="M-25 1677l175 289h151l174 -289h-153l-97 156l-98 -156h-152zM117 0v1475h221v-1475h-221z" />
<glyph unicode="&#xcf;" horiz-adv-x="450" d="M-59 1679v222h221v-222h-221zM117 0v1475h221v-1475h-221zM289 1679v222h221v-222h-221z" />
<glyph unicode="&#xd1;" horiz-adv-x="1703" d="M115 0v1475h262l991 -1180v1180h221v-1475h-262l-991 1180v-1180h-221zM492 1780v153q68 29 151 29q80 0 210 -65.5t200 -73.5q80 0 159 53v-152q-86 -37 -159 -36q-72 0 -201 69.5t-209 69.5q-122 0 -151 -47z" />
<glyph unicode="&#xd2;" d="M111 266v942q0 111 77.5 189t188.5 78h942q111 0 188.5 -78t77.5 -189v-942q0 -111 -77.5 -188.5t-188.5 -77.5h-942q-111 0 -188.5 77.5t-77.5 188.5zM332 266q0 -18 13 -31.5t32 -13.5h942q18 0 31.5 13.5t13.5 31.5v942q0 18 -13.5 31.5t-31.5 13.5h-942 q-18 0 -31.5 -13t-13.5 -32v-942zM696 2011h222l81 -332h-221z" />
<glyph unicode="&#xd3;" d="M111 266v942q0 111 77.5 189t188.5 78h942q111 0 188.5 -78t77.5 -189v-942q0 -111 -77.5 -188.5t-188.5 -77.5h-942q-111 0 -188.5 77.5t-77.5 188.5zM332 266q0 -18 13 -31.5t32 -13.5h942q18 0 31.5 13.5t13.5 31.5v942q0 18 -13.5 31.5t-31.5 13.5h-942 q-18 0 -31.5 -13t-13.5 -32v-942zM696 1679l82 332h221l-81 -332h-222z" />
<glyph unicode="&#xd4;" d="M111 266v942q0 111 77.5 189t188.5 78h942q111 0 188.5 -78t77.5 -189v-942q0 -111 -77.5 -188.5t-188.5 -77.5h-942q-111 0 -188.5 77.5t-77.5 188.5zM332 266q0 -18 13 -31.5t32 -13.5h942q18 0 31.5 13.5t13.5 31.5v942q0 18 -13.5 31.5t-31.5 13.5h-942 q-18 0 -31.5 -13t-13.5 -32v-942zM598 1677l174 289h152l174 -289h-154l-96 156l-98 -156h-152z" />
<glyph unicode="&#xd5;" d="M111 266v942q0 111 77.5 189t188.5 78h942q111 0 188.5 -78t77.5 -189v-942q0 -111 -77.5 -188.5t-188.5 -77.5h-942q-111 0 -188.5 77.5t-77.5 188.5zM332 266q0 -18 13 -31.5t32 -13.5h942q18 0 31.5 13.5t13.5 31.5v942q0 18 -13.5 31.5t-31.5 13.5h-942 q-18 0 -31.5 -13t-13.5 -32v-942zM487 1780v153q68 29 152 29q80 0 210 -65.5t200 -73.5q80 0 159 53v-152q-86 -37 -159 -36q-72 0 -201 69.5t-209 69.5q-123 0 -152 -47z" />
<glyph unicode="&#xd6;" d="M111 266v942q0 111 77.5 189t188.5 78h942q111 0 188.5 -78t77.5 -189v-942q0 -111 -77.5 -188.5t-188.5 -77.5h-942q-111 0 -188.5 77.5t-77.5 188.5zM332 266q0 -18 13 -31.5t32 -13.5h942q18 0 31.5 13.5t13.5 31.5v942q0 18 -13.5 31.5t-31.5 13.5h-942 q-18 0 -31.5 -13t-13.5 -32v-942zM563 1679v222h221v-222h-221zM911 1679v222h222v-222h-222z" />
<glyph unicode="&#xd7;" horiz-adv-x="1118" d="M109 184v31l305 399l-305 400v30h262l188 -258l189 258h262v-30l-308 -400l308 -399v-31h-262l-189 258l-188 -258h-262z" />
<glyph unicode="&#xd9;" d="M111 266v1209h221v-1209q0 -18 13 -31.5t32 -13.5h942q18 0 31.5 13.5t13.5 31.5v1209h221v-1209q0 -111 -77.5 -188.5t-188.5 -77.5h-942q-111 0 -188.5 77.5t-77.5 188.5zM696 2011h222l81 -332h-221z" />
<glyph unicode="&#xda;" d="M111 266v1209h221v-1209q0 -18 13 -31.5t32 -13.5h942q18 0 31.5 13.5t13.5 31.5v1209h221v-1209q0 -111 -77.5 -188.5t-188.5 -77.5h-942q-111 0 -188.5 77.5t-77.5 188.5zM696 1679l82 332h221l-81 -332h-222z" />
<glyph unicode="&#xdb;" d="M111 266v1209h221v-1209q0 -18 13 -31.5t32 -13.5h942q18 0 31.5 13.5t13.5 31.5v1209h221v-1209q0 -111 -77.5 -188.5t-188.5 -77.5h-942q-111 0 -188.5 77.5t-77.5 188.5zM598 1677l174 289h152l174 -289h-154l-96 156l-98 -156h-152z" />
<glyph unicode="&#xdc;" d="M111 266v1209h221v-1209q0 -18 13 -31.5t32 -13.5h942q18 0 31.5 13.5t13.5 31.5v1209h221v-1209q0 -111 -77.5 -188.5t-188.5 -77.5h-942q-111 0 -188.5 77.5t-77.5 188.5zM563 1679v222h221v-222h-221zM911 1679v222h222v-222h-222z" />
<glyph unicode="&#xdd;" horiz-adv-x="1650" d="M35 1475h260l530 -672l529 672h262l-680 -922v-553h-221v553zM674 1679l82 332h221l-82 -332h-221z" />
<glyph unicode="&#xdf;" horiz-adv-x="1705" d="M117 0v1208q0 111 77.5 189t188.5 78h942q98 0 174 -63.5t92 -158.5v-340q0 -88 -51 -155q51 -68 51 -156v-336q0 -111 -77.5 -188.5t-188.5 -77.5h-766v221h766q18 0 31.5 13.5t13.5 31.5v336q0 18 -13.5 31.5t-31.5 13.5h-766v199h766q18 0 31.5 13t13.5 32v315 q0 18 -13.5 31.5t-31.5 13.5h-942q-18 0 -31.5 -13t-13.5 -32v-1206h-221z" />
<glyph unicode="&#xe0;" horiz-adv-x="1484" d="M106 266v439h988v217q0 18 -13.5 31.5t-31.5 13.5h-943v221h943q111 0 188.5 -78t77.5 -188v-922h-942q-111 0 -189 77.5t-78 188.5zM328 266q0 -18 13 -31.5t32 -13.5h721v262h-766v-217zM590 1802h221l82 -332h-221z" />
<glyph unicode="&#xe1;" horiz-adv-x="1484" d="M106 266v439h988v217q0 18 -13.5 31.5t-31.5 13.5h-943v221h943q111 0 188.5 -78t77.5 -188v-922h-942q-111 0 -189 77.5t-78 188.5zM328 266q0 -18 13 -31.5t32 -13.5h721v262h-766v-217zM590 1470l82 332h221l-82 -332h-221z" />
<glyph unicode="&#xe2;" horiz-adv-x="1484" d="M106 266v439h988v217q0 18 -13.5 31.5t-31.5 13.5h-943v221h943q111 0 188.5 -78t77.5 -188v-922h-942q-111 0 -189 77.5t-78 188.5zM328 266q0 -18 13 -31.5t32 -13.5h721v262h-766v-217zM492 1470l174 289h151l174 -289h-153l-97 156l-98 -156h-151z" />
<glyph unicode="&#xe3;" horiz-adv-x="1484" d="M106 266v439h988v217q0 18 -13.5 31.5t-31.5 13.5h-943v221h943q111 0 188.5 -78t77.5 -188v-922h-942q-111 0 -189 77.5t-78 188.5zM328 266q0 -18 13 -31.5t32 -13.5h721v262h-766v-217zM381 1569v153q68 29 151 29q80 0 210 -65.5t200 -73.5q80 0 160 53v-152 q-86 -37 -160 -36q-72 0 -201 69.5t-209 69.5q-122 0 -151 -47z" />
<glyph unicode="&#xe4;" horiz-adv-x="1484" d="M106 266v439h988v217q0 18 -13.5 31.5t-31.5 13.5h-943v221h943q111 0 188.5 -78t77.5 -188v-922h-942q-111 0 -189 77.5t-78 188.5zM328 266q0 -18 13 -31.5t32 -13.5h721v262h-766v-217zM457 1470v222h221v-222h-221zM805 1470v222h221v-222h-221z" />
<glyph unicode="&#xe5;" horiz-adv-x="1484" d="M106 266v439h988v217q0 18 -13.5 31.5t-31.5 13.5h-943v221h943q111 0 188.5 -78t77.5 -188v-922h-942q-111 0 -189 77.5t-78 188.5zM328 266q0 -18 13 -31.5t32 -13.5h721v262h-766v-217zM573 1579v111q0 45 33 76.5t78 31.5h115q45 0 77.5 -31.5t32.5 -76.5v-111 q0 -45 -32.5 -77t-77.5 -32h-115q-45 0 -78 32t-33 77zM655 1573q0 -20 19 -21h135q18 0 18 21v123q0 20 -18 20h-135q-18 0 -19 -20v-123z" />
<glyph unicode="&#xe6;" horiz-adv-x="2412" d="M109 266v439h987v217q0 18 -13.5 31.5t-31.5 13.5h-942v221h1929q111 0 188.5 -78t77.5 -188v-439h-987v-223q4 -39 45 -39h942v-221h-1929q-111 0 -188.5 77.5t-77.5 188.5zM330 266q0 -18 13 -31.5t32 -13.5h721v262h-766v-217zM1317 705h766v217q0 18 -13.5 31.5 t-31.5 13.5h-676q-18 0 -31.5 -13.5t-13.5 -31.5v-217z" />
<glyph unicode="&#xe7;" horiz-adv-x="1419" d="M104 266v656q0 111 78 188.5t189 77.5h938v-221h-938q-18 0 -31.5 -13.5t-13.5 -31.5v-656q0 -18 13 -31.5t32 -13.5h942v-221h-942q-111 0 -189 77.5t-78 188.5zM557 -332l82 332h221l-82 -332h-221z" />
<glyph unicode="&#xe8;" horiz-adv-x="1306" d="M104 266v656q0 111 78 188.5t189 77.5h676q111 0 188.5 -78t77.5 -188v-439h-987v-217q0 -18 13 -31.5t32 -13.5h942v-221h-942q-111 0 -189 77.5t-78 188.5zM326 705h766v217q0 18 -13.5 31.5t-31.5 13.5h-676q-18 0 -31.5 -13.5t-13.5 -31.5v-217zM502 1802h221 l82 -332h-221z" />
<glyph unicode="&#xe9;" horiz-adv-x="1306" d="M104 266v656q0 111 78 188.5t189 77.5h676q111 0 188.5 -78t77.5 -188v-439h-987v-217q0 -18 13 -31.5t32 -13.5h942v-221h-942q-111 0 -189 77.5t-78 188.5zM326 705h766v217q0 18 -13.5 31.5t-31.5 13.5h-676q-18 0 -31.5 -13.5t-13.5 -31.5v-217zM502 1473l82 331h221 l-82 -331h-221z" />
<glyph unicode="&#xea;" horiz-adv-x="1306" d="M104 266v656q0 111 78 188.5t189 77.5h676q111 0 188.5 -78t77.5 -188v-439h-987v-217q0 -18 13 -31.5t32 -13.5h942v-221h-942q-111 0 -189 77.5t-78 188.5zM326 705h766v217q0 18 -13.5 31.5t-31.5 13.5h-676q-18 0 -31.5 -13.5t-13.5 -31.5v-217zM403 1470l175 289 h151l174 -289h-153l-97 156l-98 -156h-152z" />
<glyph unicode="&#xeb;" horiz-adv-x="1306" d="M104 266v656q0 111 78 188.5t189 77.5h676q111 0 188.5 -78t77.5 -188v-439h-987v-217q0 -18 13 -31.5t32 -13.5h942v-221h-942q-111 0 -189 77.5t-78 188.5zM326 705h766v217q0 18 -13.5 31.5t-31.5 13.5h-676q-18 0 -31.5 -13.5t-13.5 -31.5v-217zM369 1470v222h221 v-222h-221zM717 1470v222h221v-222h-221z" />
<glyph unicode="&#xec;" horiz-adv-x="438" d="M33 1804h221l82 -331h-221zM115 0v1188h221v-1188h-221z" />
<glyph unicode="&#xed;" horiz-adv-x="438" d="M100 1470l82 332h221l-81 -332h-222zM104 0v1188h222v-1188h-222z" />
<glyph unicode="&#xee;" horiz-adv-x="438" d="M-31 1470l174 289h152l174 -289h-154l-96 156l-98 -156h-152zM104 0v1188h222v-1188h-222z" />
<glyph unicode="&#xef;" horiz-adv-x="438" d="M-66 1475v221h222v-221h-222zM113 0v1188h221v-1188h-221zM283 1475v221h221v-221h-221z" />
<glyph unicode="&#xf1;" horiz-adv-x="1449" d="M111 0v1188h942q111 0 188.5 -78t77.5 -188v-922h-221v922q0 18 -13.5 31.5t-31.5 13.5h-676q-18 0 -31.5 -13.5t-13.5 -31.5v-922h-221zM365 1567v153q68 29 151 29q80 0 210 -65.5t200 -73.5q80 0 159 53v-152q-86 -37 -159 -36q-72 0 -201 69.5t-209 69.5 q-122 0 -151 -47z" />
<glyph unicode="&#xf2;" horiz-adv-x="1417" d="M104 266v656q0 111 78 188.5t189 77.5h676q111 0 188.5 -78t77.5 -188v-656q0 -111 -78 -188.5t-188 -77.5h-676q-111 0 -189 77.5t-78 188.5zM326 266q0 -18 13 -31.5t32 -13.5h676q18 0 31.5 13.5t13.5 31.5v656q0 18 -13.5 31.5t-31.5 13.5h-676q-18 0 -31.5 -13.5 t-13.5 -31.5v-656zM557 1804h221l82 -331h-221z" />
<glyph unicode="&#xf3;" horiz-adv-x="1417" d="M104 266v656q0 111 78 188.5t189 77.5h676q111 0 188.5 -78t77.5 -188v-656q0 -111 -78 -188.5t-188 -77.5h-676q-111 0 -189 77.5t-78 188.5zM326 266q0 -18 13 -31.5t32 -13.5h676q18 0 31.5 13.5t13.5 31.5v656q0 18 -13.5 31.5t-31.5 13.5h-676q-18 0 -31.5 -13.5 t-13.5 -31.5v-656zM557 1473l82 331h221l-82 -331h-221z" />
<glyph unicode="&#xf4;" horiz-adv-x="1417" d="M104 266v656q0 111 78 188.5t189 77.5h676q111 0 188.5 -78t77.5 -188v-656q0 -111 -78 -188.5t-188 -77.5h-676q-111 0 -189 77.5t-78 188.5zM326 266q0 -18 13 -31.5t32 -13.5h676q18 0 31.5 13.5t13.5 31.5v656q0 18 -13.5 31.5t-31.5 13.5h-676q-18 0 -31.5 -13.5 t-13.5 -31.5v-656zM459 1470l174 289h151l174 -289h-153l-96 156l-99 -156h-151z" />
<glyph unicode="&#xf5;" horiz-adv-x="1417" d="M104 266v656q0 111 78 188.5t189 77.5h676q111 0 188.5 -78t77.5 -188v-656q0 -111 -78 -188.5t-188 -77.5h-676q-111 0 -189 77.5t-78 188.5zM326 266q0 -18 13 -31.5t32 -13.5h676q18 0 31.5 13.5t13.5 31.5v656q0 18 -13.5 31.5t-31.5 13.5h-676q-18 0 -31.5 -13.5 t-13.5 -31.5v-656zM348 1567v153q68 29 152 29q80 0 210 -65.5t199 -73.5q80 0 160 53v-152q-86 -37 -160 -36q-72 0 -200.5 69.5t-208.5 69.5q-123 0 -152 -47z" />
<glyph unicode="&#xf6;" horiz-adv-x="1417" d="M104 266v656q0 111 78 188.5t189 77.5h676q111 0 188.5 -78t77.5 -188v-656q0 -111 -78 -188.5t-188 -77.5h-676q-111 0 -189 77.5t-78 188.5zM326 266q0 -18 13 -31.5t32 -13.5h676q18 0 31.5 13.5t13.5 31.5v656q0 18 -13.5 31.5t-31.5 13.5h-676q-18 0 -31.5 -13.5 t-13.5 -31.5v-656zM424 1475v221h221v-221h-221zM772 1475v221h221v-221h-221z" />
<glyph unicode="&#xf7;" horiz-adv-x="1028" d="M37 496v221h983v-221h-983zM412 0v221h221v-221h-221zM412 983v221h221v-221h-221z" />
<glyph unicode="&#xf9;" horiz-adv-x="1423" d="M109 266v922h221v-922q0 -18 13 -31.5t32 -13.5h676q18 0 31.5 13.5t13.5 31.5v922h221v-922q0 -111 -78 -188.5t-188 -77.5h-676q-111 0 -188.5 77.5t-77.5 188.5zM559 1804h221l82 -331h-221z" />
<glyph unicode="&#xfa;" horiz-adv-x="1423" d="M109 266v922h221v-922q0 -18 13 -31.5t32 -13.5h676q18 0 31.5 13.5t13.5 31.5v922h221v-922q0 -111 -78 -188.5t-188 -77.5h-676q-111 0 -188.5 77.5t-77.5 188.5zM559 1473l82 331h221l-82 -331h-221z" />
<glyph unicode="&#xfb;" horiz-adv-x="1423" d="M109 266v922h221v-922q0 -18 13 -31.5t32 -13.5h676q18 0 31.5 13.5t13.5 31.5v922h221v-922q0 -111 -78 -188.5t-188 -77.5h-676q-111 0 -188.5 77.5t-77.5 188.5zM461 1473l174 288h151l175 -288h-154l-96 155l-99 -155h-151z" />
<glyph unicode="&#xfc;" horiz-adv-x="1423" d="M109 266v922h221v-922q0 -18 13 -31.5t32 -13.5h676q18 0 31.5 13.5t13.5 31.5v922h221v-922q0 -111 -78 -188.5t-188 -77.5h-676q-111 0 -188.5 77.5t-77.5 188.5zM426 1470v222h221v-222h-221zM774 1470v222h221v-222h-221z" />
<glyph unicode="&#xfd;" horiz-adv-x="1409" d="M86 266v918h221v-918q0 -18 13.5 -31.5t31.5 -13.5h676q18 0 31.5 13.5t13.5 31.5v918h221v-729v-4v-656q0 -111 -77.5 -188.5t-188.5 -77.5h-733v221h733q18 0 31.5 13.5t13.5 31.5v205h-721q-111 0 -188.5 77.5t-77.5 188.5zM553 1473l82 331h221l-82 -331h-221z" />
<glyph unicode="&#xff;" horiz-adv-x="1409" d="M86 266v918h221v-918q0 -18 13.5 -31.5t31.5 -13.5h676q18 0 31.5 13.5t13.5 31.5v918h221v-729v-4v-656q0 -111 -77.5 -188.5t-188.5 -77.5h-733v221h733q18 0 31.5 13.5t13.5 31.5v205h-721q-111 0 -188.5 77.5t-77.5 188.5zM420 1475v221h221v-221h-221zM768 1475v221 h221v-221h-221z" />
<glyph unicode="&#x152;" horiz-adv-x="2813" d="M109 266v942q0 111 77.5 189t188.5 78h2339v-222h-1131v-405h909v-221h-909v-406h1131v-221h-2339q-111 0 -188.5 77.5t-77.5 188.5zM330 266q0 -18 13 -31.5t32 -13.5h942q18 0 31.5 13.5t13.5 31.5v942q0 18 -13.5 31.5t-31.5 13.5h-942q-18 0 -31.5 -13t-13.5 -32 v-942z" />
<glyph unicode="&#x153;" horiz-adv-x="2410" d="M106 266v656q0 111 78 188.5t189 77.5h1663q111 0 188.5 -78t77.5 -188v-439h-987v-217q0 -18 13 -31.5t32 -13.5h942v-221h-1929q-111 0 -189 77.5t-78 188.5zM328 266q0 -18 13 -31.5t32 -13.5h676q18 0 31.5 13.5t13.5 31.5v656q0 18 -13.5 31.5t-31.5 13.5h-676 q-18 0 -31.5 -13.5t-13.5 -31.5v-656zM1315 705h766v217q0 18 -13.5 31.5t-31.5 13.5h-676q-18 0 -31.5 -13.5t-13.5 -31.5v-217z" />
<glyph unicode="&#x178;" horiz-adv-x="1650" d="M35 1475h260l530 -672l529 672h262l-680 -922v-553h-221v553zM541 1679v222h221v-222h-221zM889 1679v222h221v-222h-221z" />
<glyph unicode="&#x2c6;" horiz-adv-x="614" d="M57 1692l174 288h152l174 -288h-154l-96 155l-98 -155h-152z" />
<glyph unicode="&#x2dc;" horiz-adv-x="825" d="M47 1794v154q68 29 152 28q80 0 210 -65.5t199 -73.5q80 0 160 53v-151q-86 -37 -160 -37q-72 0 -200.5 69.5t-208.5 69.5q-123 0 -152 -47z" />
<glyph unicode="&#x2000;" horiz-adv-x="1011" />
<glyph unicode="&#x2001;" horiz-adv-x="2025" />
<glyph unicode="&#x2002;" horiz-adv-x="1011" />
<glyph unicode="&#x2003;" horiz-adv-x="2025" />
<glyph unicode="&#x2004;" horiz-adv-x="673" />
<glyph unicode="&#x2005;" horiz-adv-x="505" />
<glyph unicode="&#x2006;" horiz-adv-x="335" />
<glyph unicode="&#x2007;" horiz-adv-x="335" />
<glyph unicode="&#x2008;" horiz-adv-x="251" />
<glyph unicode="&#x2009;" horiz-adv-x="403" />
<glyph unicode="&#x200a;" horiz-adv-x="110" />
<glyph unicode="&#x2010;" horiz-adv-x="1058" d="M121 496v221h819v-221h-819z" />
<glyph unicode="&#x2011;" horiz-adv-x="1058" d="M121 496v221h819v-221h-819z" />
<glyph unicode="&#x2012;" horiz-adv-x="1058" d="M121 496v221h819v-221h-819z" />
<glyph unicode="&#x2013;" horiz-adv-x="1449" d="M111 494v221h1228v-221h-1228z" />
<glyph unicode="&#x2014;" horiz-adv-x="1683" d="M111 494v221h1462v-221h-1462z" />
<glyph unicode="&#x2018;" horiz-adv-x="397" d="M70 991v221q0 98 63.5 172t157.5 91v-484h-221z" />
<glyph unicode="&#x2019;" horiz-adv-x="395" d="M111 991v484h221v-222q0 -98 -63.5 -172t-157.5 -90z" />
<glyph unicode="&#x201c;" horiz-adv-x="774" d="M94 991v221q0 98 63.5 172t157.5 91v-484h-221zM444 991v221q0 98 63.5 172t158.5 91v-484h-222z" />
<glyph unicode="&#x201d;" horiz-adv-x="774" d="M111 991v484h221v-222q0 -98 -63.5 -172t-157.5 -90zM461 991v484h221v-222q0 -98 -63.5 -172t-157.5 -90z" />
<glyph unicode="&#x2022;" horiz-adv-x="759" d="M268 717v41q0 86 86 86h47q88 0 88 -86v-41q0 -86 -88 -86h-47q-86 0 -86 86z" />
<glyph unicode="&#x2026;" horiz-adv-x="1175" d="M111 0v221h221v-221h-221zM477 0v221h221v-221h-221zM844 0v221h221v-221h-221z" />
<glyph unicode="&#x202f;" horiz-adv-x="403" />
<glyph unicode="&#x2039;" horiz-adv-x="968" d="M10 496v221l842 485v-256l-592 -340l592 -342v-256z" />
<glyph unicode="&#x203a;" horiz-adv-x="972" d="M121 4v256l592 342l-592 340v256l842 -485v-221z" />
<glyph unicode="&#x205f;" horiz-adv-x="505" />
<glyph unicode="&#x20ac;" horiz-adv-x="1636" d="M72 446v222h204v139h-204v221h204v180q0 111 78 189t189 78h999v-222h-999q-18 0 -31.5 -13t-13.5 -32v-180h823v-221h-823v-139h823v-222h-823v-180q0 -18 13 -31.5t32 -13.5h999v-221h-999q-111 0 -189 78t-78 188v180h-204z" />
<glyph unicode="&#x2122;" horiz-adv-x="3454" d="M1669 0v1475h262l573 -682l572 682h264v-1475h-221v1180l-615 -731l-614 731v-1180h-221zM41 1253v222h1475v-222h-627v-1253h-221v1253h-627z" />
<glyph unicode="&#xe000;" horiz-adv-x="1190" d="M0 1190h1190v-1190h-1190v1190z" />
<glyph unicode="&#xfb01;" horiz-adv-x="1259" d="M940 0v1188h222v-1188h-222zM940 1356v221h222v-221h-222zM109 0v655v656q0 111 77.5 188.5t188.5 77.5h442v-221h-442q-18 0 -31.5 -13.5t-13.5 -31.5v-123h487v-221h-487v-967h-221z" />
<glyph unicode="&#xfb02;" horiz-adv-x="1452" d="M940 266v656v655h222v-1311q0 -18 13 -31.5t32 -13.5h221v-221h-221q-111 0 -189 77.5t-78 188.5zM109 0v655v656q0 111 77.5 188.5t188.5 77.5h442v-221h-442q-18 0 -31.5 -13.5t-13.5 -31.5v-123h487v-221h-487v-967h-221z" />
<glyph unicode="&#xfb03;" horiz-adv-x="2093" d="M1773 0v1188h222v-1188h-222zM1773 1356v221h222v-221h-222zM943 0v655v656q0 111 77.5 188.5t188.5 77.5h442v-221h-442q-18 0 -31.5 -13.5t-13.5 -31.5v-123h487v-221h-487v-967h-221zM109 0v655v656q0 111 77.5 188.5t188.5 77.5h442v-221h-442q-18 0 -31.5 -13.5 t-13.5 -31.5v-123h487v-221h-487v-967h-221z" />
<glyph unicode="&#xfb04;" horiz-adv-x="2285" d="M1773 266v656v655h222v-1311q0 -18 13 -31.5t32 -13.5h221v-221h-221q-111 0 -189 77.5t-78 188.5zM943 0v655v656q0 111 77.5 188.5t188.5 77.5h442v-221h-442q-18 0 -31.5 -13.5t-13.5 -31.5v-123h487v-221h-487v-967h-221zM109 0v655v656q0 111 77.5 188.5t188.5 77.5 h442v-221h-442q-18 0 -31.5 -13.5t-13.5 -31.5v-123h487v-221h-487v-967h-221z" />
<glyph horiz-adv-x="821" />
</font>
</defs>
</svg>
