<?xml version="1.0" standalone="no"?>
<!DOCTYPE svg PUBLIC "-//W3C//DTD SVG 1.1//EN" "http://www.w3.org/Graphics/SVG/1.1/DTD/svg11.dtd" >
<svg xmlns="http://www.w3.org/2000/svg">
<metadata>
This is a custom SVG webfont generated by Font Squirrel.
Copyright   : Generated in 2009 by FontLab Studio Copyright info pending
Designer    : Matt McInerney
Foundry     : Matt McInerney
Foundry URL : httptheleagueofmoveabletypecom
</metadata>
<defs>
<font id="webfontLed3kaYy" horiz-adv-x="1695" >
<font-face units-per-em="2048" ascent="1536" descent="-512" />
<missing-glyph horiz-adv-x="557" />
<glyph unicode=" "  horiz-adv-x="557" />
<glyph unicode="&#x09;" horiz-adv-x="557" />
<glyph unicode="&#xa0;" horiz-adv-x="557" />
<glyph unicode="!" horiz-adv-x="450" d="M119 0v168h168v-168h-168zM119 416v1059h168v-1059h-168z" />
<glyph unicode="&#x22;" horiz-adv-x="761" d="M121 1188v287h168v-287h-168zM438 1188v287h168v-287h-168z" />
<glyph unicode="#" horiz-adv-x="1632" d="M66 350v168h260l145 451h-340v168h393l115 336h166l-117 -336h535l114 336h166l-117 -336h197v-168h-248l-145 -451h326v-168h-379l-109 -350h-168l111 350h-533l-108 -350h-168l110 350h-206zM494 518h530l145 451h-532z" />
<glyph unicode="$" horiz-adv-x="1613" d="M70 248v59h168v-59q0 -33 23.5 -56.5t55.5 -23.5h414v487h-414q-102 0 -174.5 72t-72.5 176v324q0 104 72.5 177t174.5 73h414v233h168v-233h412q104 0 177 -73t73 -177v-58h-170v58q0 33 -24 56.5t-56 23.5h-412v-484h412q104 0 177 -72.5t73 -175.5v-327 q0 -102 -73 -175t-177 -73h-412v-233h-168v233h-414q-102 0 -174.5 73t-72.5 175zM238 903q0 -33 23.5 -56.5t55.5 -23.5h414v484h-414q-33 0 -56 -23.5t-23 -56.5v-324zM899 168h412q33 0 56.5 23.5t23.5 56.5v327q0 33 -24 56.5t-56 23.5h-412v-487z" />
<glyph unicode="%" horiz-adv-x="1978" d="M98 1053v172q0 104 73 177t177 73h193q104 0 177 -73t73 -177v-172q0 -102 -73 -175t-177 -73h-193q-104 0 -177 73t-73 175zM223 1010q0 -33 23.5 -56.5t56.5 -23.5h283q33 0 56.5 23.5t23.5 56.5v258q0 33 -24 56.5t-56 23.5h-283q-33 0 -56.5 -24t-23.5 -56v-258z M281 0v221l1491 1256v-220zM1219 246v174q0 102 71.5 175t175.5 73h195q102 0 175 -73t73 -175v-174q0 -102 -73 -175t-175 -73h-195q-104 0 -175.5 73t-71.5 175zM1343 203q0 -33 24 -56.5t56 -23.5h281q33 0 56.5 23.5t23.5 56.5v260q0 33 -23.5 56.5t-56.5 23.5h-281 q-33 0 -56.5 -23.5t-23.5 -56.5v-260z" />
<glyph unicode="&#x26;" horiz-adv-x="1921" d="M109 248v440q0 45 55 89t147 44q-117 88 -116 197v205q0 104 72.5 177t174.5 73h842q84 0 154.5 -62.5t95.5 -146.5v-113h-170v70q0 33 -23.5 56t-56.5 23h-842q-33 0 -56.5 -23.5t-23.5 -55.5v-285l1068 -539v285h167v-340l275 -162v-147l-281 157q-35 -86 -99.5 -138 t-141.5 -52h-994q-102 0 -174.5 73t-72.5 175zM276 248q0 -33 24 -56.5t56 -23.5h994q23 0 45 20.5t37 53.5l-1045 526h-31q-33 0 -56.5 -23.5t-23.5 -56.5v-440z" />
<glyph unicode="'" horiz-adv-x="458" d="M121 1188v287h168v-287h-168z" />
<glyph unicode="(" horiz-adv-x="567" d="M106 248v977q0 104 73 177t175 73h60v-170h-60q-33 0 -56.5 -24t-23.5 -56v-977q0 -33 24 -56.5t56 -23.5h60v-168h-60q-102 0 -175 73t-73 175z" />
<glyph unicode=")" horiz-adv-x="569" d="M115 0v168h57q33 0 56.5 23.5t23.5 56.5v977q0 33 -23.5 56.5t-56.5 23.5h-57v170h57q102 0 176 -73t74 -177v-977q0 -102 -74 -175t-176 -73h-57z" />
<glyph unicode="*" horiz-adv-x="1005" d="M51 1096l49 161l301 -100v316h168v-314l297 98l56 -161l-299 -97l184 -256l-67 -49l-68 -49l-187 252l-184 -252l-74 52l-63 44l184 258z" />
<glyph unicode="+" horiz-adv-x="886" d="M35 522v168h311v314h168v-314h320v-168h-320v-317h-168v317h-311z" />
<glyph unicode="," horiz-adv-x="395" d="M111 168h168v-201q0 -82 -47.5 -146.5t-120.5 -88.5v436z" />
<glyph unicode="-" horiz-adv-x="1058" d="M121 522v168h799v-168h-799z" />
<glyph unicode="." horiz-adv-x="438" d="M111 0v168h168v-168h-168z" />
<glyph unicode="/" horiz-adv-x="1067" d="M12 0v217l1037 1258v-213z" />
<glyph unicode="0" horiz-adv-x="1708" d="M117 248v977q0 104 71.5 177t176.5 73h993q102 0 175 -73t73 -177v-977q0 -102 -73 -175t-175 -73h-993q-104 0 -176 73t-72 175zM285 371l1130 934h-1050q-33 0 -56.5 -24t-23.5 -56v-854zM305 168h1053q33 0 56.5 23.5t23.5 56.5v854z" />
<glyph unicode="1" horiz-adv-x="800" d="M2 1014l387 461h229v-1475h-169v1286q-29 -37 -114 -137l-114 -135h-219z" />
<glyph unicode="2" horiz-adv-x="1699" d="M117 0v553q0 104 71.5 176t176.5 72h993q33 0 56.5 23.5t23.5 56.5v346q0 33 -23.5 56.5t-56.5 23.5h-993q-33 0 -56.5 -23.5t-23.5 -56.5v-58h-168v58q0 104 71.5 177t176.5 73h993q102 0 175 -73t73 -177v-346q0 -102 -73 -175t-175 -73h-993q-33 0 -56.5 -23.5 t-23.5 -56.5v-305q0 -33 23.5 -56.5t56.5 -23.5h1241v-168h-1489z" />
<glyph unicode="3" horiz-adv-x="1691" d="M109 248v33h170v-33q0 -33 23.5 -56.5t55.5 -23.5h994q33 0 56.5 23.5t23.5 56.5v342q0 33 -24 56.5t-56 23.5h-961v168h895q33 0 56.5 23.5t23.5 56.5v309q0 33 -23.5 56.5t-56.5 23.5h-928q-33 0 -56 -23.5t-23 -56.5v-53h-170v53q0 104 72.5 177t176.5 73h928 q104 0 176 -73t72 -177v-309q0 -53 -25 -107l9 -37q82 -76 81 -184v-342q0 -102 -72.5 -175t-174.5 -73h-994q-104 0 -176.5 73t-72.5 175z" />
<glyph unicode="4" horiz-adv-x="1495" d="M12 381v188l1008 908h188v-928h230v-168h-230v-381h-168v381h-1028zM227 549h813v659z" />
<glyph unicode="5" horiz-adv-x="1699" d="M117 248v59h168v-59q0 -33 23.5 -56.5t56.5 -23.5h993q33 0 56.5 23.5t23.5 56.5v348q0 33 -23.5 56.5t-56.5 23.5h-1241v801h1489v-170h-1241q-33 0 -56.5 -23.5t-23.5 -56.5v-301q0 -33 23.5 -57.5t56.5 -24.5h993q102 0 175 -72t73 -176v-348q0 -102 -73 -175 t-175 -73h-993q-104 0 -176 73t-72 175z" />
<glyph unicode="6" horiz-adv-x="1679" d="M117 248v979q0 104 71.5 177t176.5 73h983v-170h-983q-33 0 -56.5 -23.5t-23.5 -56.5v-295q0 -33 23.5 -57.5t56.5 -24.5h993q102 0 175 -71.5t73 -176.5v-354q0 -102 -73 -175t-175 -73h-993q-104 0 -176 73t-72 175zM285 248q0 -33 23.5 -56.5t56.5 -23.5h993 q33 0 56.5 23.5t23.5 56.5v354q0 33 -23.5 56.5t-56.5 23.5h-1073v-434z" />
<glyph unicode="7" horiz-adv-x="1351" d="M6 1307v170h983q102 0 175 -73t73 -177v-1227h-168v1227q0 33 -23.5 56.5t-56.5 23.5h-983z" />
<glyph unicode="8" horiz-adv-x="1708" d="M117 248v348q0 84 61 164q-61 84 -61 166v301q0 104 71.5 177t176.5 73h993q82 0 152.5 -62.5t95.5 -146.5v-342q0 -82 -62 -166q61 -80 62 -164v-348q0 -102 -73 -175t-175 -73h-993q-104 0 -176 73t-72 175zM285 248q0 -33 23.5 -56.5t56.5 -23.5h993q33 0 56.5 23.5 t23.5 56.5v348q0 33 -23.5 56.5t-56.5 23.5h-993q-33 0 -56.5 -23.5t-23.5 -56.5v-348zM285 901q0 -33 23.5 -56.5t56.5 -23.5h993q33 0 56.5 23.5t23.5 56.5v324q0 33 -23.5 56.5t-56.5 23.5h-993q-33 0 -56.5 -24t-23.5 -56v-324z" />
<glyph unicode="9" d="M104 872v355q0 104 73 177t177 73h994q102 0 174.5 -73t72.5 -177v-979q0 -102 -72.5 -175t-174.5 -73h-994q-80 0 -145.5 47t-89.5 121h1229q33 0 56 23.5t23 56.5v297q0 33 -23.5 56.5t-55.5 23.5h-994q-104 0 -177 72.5t-73 174.5zM274 872q0 -33 24 -56t56 -23h1073 v434q0 33 -23.5 56.5t-55.5 23.5h-994q-33 0 -56.5 -23.5t-23.5 -56.5v-355z" />
<glyph unicode=":" horiz-adv-x="438" d="M111 0v168h168v-168h-168zM111 1036v168h168v-168h-168z" />
<glyph unicode=";" horiz-adv-x="395" d="M104 168h168v-201q0 -82 -47 -146.5t-121 -88.5v436zM104 1036v168h168v-168h-168z" />
<glyph unicode="&#x3c;" horiz-adv-x="968" d="M10 508v199l824 473v-195l-656 -379l656 -379v-194z" />
<glyph unicode="=" horiz-adv-x="1306" d="M121 309v168h1059v-168h-1059zM121 719v168h1059v-168h-1059z" />
<glyph unicode="&#x3e;" horiz-adv-x="972" d="M121 29v194l655 379l-655 379v195l823 -474v-198z" />
<glyph unicode="?" horiz-adv-x="1388" d="M63 1303v172l1059 -2q102 0 175 -73t73 -177v-398q0 -102 -72.5 -174.5t-175.5 -72.5h-561q-33 0 -56.5 -24t-23.5 -56v-86h-168v86q0 104 73 175.5t175 71.5h561q33 0 56.5 24t23.5 56v398q0 33 -23.5 56.5t-56.5 23.5h-1059zM313 0v168h168v-168h-168z" />
<glyph unicode="@" horiz-adv-x="1701" d="M117 248v977q0 104 71.5 177t176.5 73h993q102 0 175 -73t73 -177v-832h-842q-104 0 -176 73t-72 177v172q0 102 71.5 175t176.5 73h194q102 0 175 -72.5t73 -175.5v-295h232v705q0 33 -23.5 56.5t-56.5 23.5h-993q-33 0 -56.5 -24t-23.5 -56v-977q0 -33 23.5 -56.5 t56.5 -23.5h1241v-168h-1241q-104 0 -176 73t-72 175zM641 600q0 -33 23.5 -56.5t56.5 -23.5h360v338q0 33 -23.5 56.5t-56.5 23.5h-280q-33 0 -56.5 -23.5t-23.5 -56.5v-258z" />
<glyph unicode="A" horiz-adv-x="1712" d="M119 0v1229q0 102 71.5 174t174.5 72h983q102 0 173.5 -72t71.5 -174v-1229h-166v539h-1142v-539h-166zM285 705h1142v524q0 33 -23.5 56.5t-55.5 23.5h-983q-33 0 -56.5 -23.5t-23.5 -56.5v-524z" />
<glyph unicode="B" horiz-adv-x="1703" d="M121 0v1475h1165q102 0 174 -72t72 -174v-314q0 -55 -27 -108l8 -35q82 -76 82 -182v-344q0 -102 -71.5 -174t-173.5 -72h-1229zM287 246q0 -33 23.5 -56.5t56.5 -23.5h983q33 0 56.5 23.5t23.5 56.5v344q0 33 -24 56.5t-56 23.5h-983q-33 0 -56.5 -23.5t-23.5 -56.5 v-344zM287 915q0 -33 23.5 -56t56.5 -23h919q33 0 55.5 23.5t22.5 55.5v314q0 33 -22.5 56.5t-55.5 23.5h-919q-33 0 -56.5 -23.5t-23.5 -56.5v-314z" />
<glyph unicode="C" horiz-adv-x="1683" d="M115 246v983q0 102 71.5 174t173.5 72h1225v-166h-1225q-33 0 -56 -23.5t-23 -56.5v-983q0 -33 23.5 -56.5t55.5 -23.5h1225v-166h-1225q-102 0 -173.5 72t-71.5 174z" />
<glyph unicode="D" horiz-adv-x="1708" d="M119 0v1475h1229q102 0 173.5 -72t71.5 -174v-983q0 -102 -71.5 -174t-173.5 -72h-1229zM285 246q0 -33 23.5 -56.5t56.5 -23.5h983q33 0 56 23.5t23 56.5v983q0 33 -23.5 56.5t-55.5 23.5h-983q-33 0 -56.5 -23.5t-23.5 -56.5v-983z" />
<glyph unicode="E" horiz-adv-x="1568" d="M119 0v1475h1345v-166h-1179v-488h948v-168h-948v-487h1179v-166h-1345z" />
<glyph unicode="F" horiz-adv-x="1480" d="M119 0v1475h1345v-166h-1179v-488h948v-168h-948v-653h-166z" />
<glyph unicode="G" horiz-adv-x="1699" d="M115 246v983q0 102 71.5 174t173.5 72h983q102 0 174 -72t72 -174v-60h-166v60q0 33 -23.5 56.5t-56.5 23.5h-983q-33 0 -56 -23.5t-23 -56.5v-983q0 -33 23.5 -56.5t55.5 -23.5h983q33 0 56.5 23.5t23.5 56.5v364h-364v168h530v-532q0 -102 -71.5 -174t-174.5 -72h-983 q-102 0 -173.5 72t-71.5 174z" />
<glyph unicode="H" horiz-adv-x="1742" d="M117 0v1475h166v-654h1177v654h168v-1475h-168v653h-1177v-653h-166z" />
<glyph unicode="I" horiz-adv-x="450" d="M117 0v1475h166v-1475h-166z" />
<glyph unicode="J" horiz-adv-x="1597" d="M8 246v116h166v-116q0 -33 23.5 -56.5t56.5 -23.5h983q33 0 56.5 23.5t23.5 56.5v1229h166v-1229q0 -102 -72 -174t-174 -72h-983q-102 0 -174 72t-72 174z" />
<glyph unicode="K" horiz-adv-x="1632" d="M117 0v1475h168v-654h475l549 654h213l-617 -738l619 -737h-215l-549 653h-475v-653h-168z" />
<glyph unicode="L" horiz-adv-x="1595" d="M117 0v1477h166v-1311h1308v-166h-1474z" />
<glyph unicode="M" horiz-adv-x="1900" d="M115 0v1475h227l612 -730l613 730h227v-1475h-166v1286l-674 -801l-673 801v-1286h-166z" />
<glyph unicode="N" horiz-adv-x="1703" d="M115 0v1475h227l1081 -1287v1287h166v-1475h-227l-1081 1286v-1286h-166z" />
<glyph unicode="O" d="M111 246v983q0 102 71.5 174t173.5 72h983q102 0 174 -72t72 -174v-983q0 -102 -71.5 -174t-174.5 -72h-983q-102 0 -173.5 72t-71.5 174zM276 246q0 -33 24 -56.5t56 -23.5h983q33 0 56.5 23.5t23.5 56.5v983q0 33 -23.5 56.5t-56.5 23.5h-983q-33 0 -56.5 -23.5 t-23.5 -56.5v-983z" />
<glyph unicode="P" horiz-adv-x="1619" d="M115 0v1473h1228q102 0 174 -72t72 -174v-432q0 -102 -71.5 -174t-174.5 -72h-983q-18 0 -79 8v-557h-166zM281 795q0 -33 23.5 -55.5t55.5 -22.5h983q33 0 56.5 22.5t23.5 55.5v432q0 33 -23.5 56.5t-56.5 23.5h-983q-33 0 -56 -23.5t-23 -56.5v-432z" />
<glyph unicode="Q" horiz-adv-x="1810" d="M111 246v983q0 102 71.5 174t173.5 72h983q102 0 174 -72t72 -174v-983q0 -18 -8 -80h201v-166h-1422q-102 0 -173.5 72t-71.5 174zM276 246q0 -33 24 -56.5t56 -23.5h983q33 0 56.5 23.5t23.5 56.5v983q0 33 -23.5 56.5t-56.5 23.5h-983q-33 0 -56.5 -23.5t-23.5 -56.5 v-983z" />
<glyph unicode="R" horiz-adv-x="1689" d="M113 0v1473h1228q102 0 174 -72t72 -174v-432q0 -102 -71.5 -174t-174.5 -72h-225l463 -549h-219l-461 549h-541q-18 0 -79 8v-557h-166zM279 795q0 -33 23.5 -55.5t55.5 -22.5h983q33 0 55.5 22.5t22.5 55.5v432q0 33 -22.5 56.5t-55.5 23.5h-983q-33 0 -56 -23.5 t-23 -56.5v-432z" />
<glyph unicode="S" horiz-adv-x="1683" d="M104 246v57h166v-57q0 -33 23.5 -56.5t56.5 -23.5h983q33 0 56.5 23.5t23.5 56.5v329q0 33 -23.5 55.5t-56.5 22.5h-983q-102 0 -174 72t-72 174v330q0 102 72 174t174 72h983q102 0 174 -72t72 -174v-58h-166v58q0 33 -23.5 56.5t-56.5 23.5h-983q-33 0 -56.5 -23.5 t-23.5 -56.5v-330q0 -33 23.5 -55.5t56.5 -22.5h983q102 0 174 -71.5t72 -174.5v-329q0 -102 -71.5 -174t-174.5 -72h-983q-102 0 -174 72t-72 174z" />
<glyph unicode="T" horiz-adv-x="1554" d="M41 1309v166h1475v-166h-654v-1309h-166v1309h-655z" />
<glyph unicode="U" d="M111 246v1229h165v-1229q0 -33 24 -56.5t56 -23.5h983q33 0 56.5 23.5t23.5 56.5v1229h166v-1229q0 -102 -71.5 -174t-174.5 -72h-983q-102 0 -173.5 72t-71.5 174z" />
<glyph unicode="V" horiz-adv-x="2054" d="M72 1475h194l756 -1313l754 1313h194l-852 -1475h-192z" />
<glyph unicode="W" horiz-adv-x="2414" d="M72 1475h176l432 -1184l430 1184h201l432 -1184l428 1184h180l-536 -1475h-146l-459 1260l-458 -1260h-144z" />
<glyph unicode="X" horiz-adv-x="1662" d="M94 0l619 737l-619 738h213l514 -609l512 609h213l-618 -738l620 -737h-215l-512 608l-514 -608h-213z" />
<glyph unicode="Y" horiz-adv-x="1650" d="M35 1475h190l572 -721l565 721h194l-677 -920v-555h-166v555z" />
<glyph unicode="Z" horiz-adv-x="1681" d="M104 0v227l1287 1082h-1287v166h1475v-228l-1286 -1081h1286v-166h-1475z" />
<glyph unicode="[" horiz-adv-x="563" d="M111 0v1477h307v-170h-139v-1139h139v-168h-307z" />
<glyph unicode="\" horiz-adv-x="1064" d="M10 1272v213l1037 -1266v-217z" />
<glyph unicode="]" horiz-adv-x="565" d="M104 0v168h138v1139h-138v170h308v-1477h-308z" />
<glyph unicode="_" d="M111 0h1491v-168h-1491v168z" />
<glyph unicode="`" horiz-adv-x="436" d="M66 2071h165l70 -285h-164z" />
<glyph unicode="a" horiz-adv-x="1421" d="M106 248v430h1041v262q0 33 -23.5 56.5t-56.5 23.5h-961v168h961q104 0 177 -73t73 -175v-940h-963q-102 0 -175 73t-73 175zM274 248q0 -33 24 -56.5t56 -23.5h793v342h-873v-262z" />
<glyph unicode="b" horiz-adv-x="1366" d="M111 0v1577h168v-389h794q102 0 175 -73t73 -175v-692q0 -102 -72.5 -175t-175.5 -73h-962zM279 248q0 -33 24.5 -56.5t56.5 -23.5h713q33 0 56.5 23.5t23.5 56.5v692q0 33 -23.5 56.5t-56.5 23.5h-713q-33 0 -57 -23.5t-24 -56.5v-692z" />
<glyph unicode="c" horiz-adv-x="1423" d="M104 248v692q0 102 73 175t175 73h959v-168h-959q-33 0 -56.5 -23.5t-23.5 -56.5v-692q0 -33 23.5 -56.5t56.5 -23.5h963v-168h-963q-102 0 -175 73t-73 175z" />
<glyph unicode="d" horiz-adv-x="1366" d="M47 248v692q0 102 73 175t177 73h793v389h167v-1577h-960q-104 0 -177 73t-73 175zM217 248q0 -33 23.5 -56.5t56.5 -23.5h713q33 0 56.5 23.5t23.5 56.5v692q0 33 -24 56.5t-56 23.5h-713q-33 0 -56.5 -23.5t-23.5 -56.5v-692z" />
<glyph unicode="e" horiz-adv-x="1417" d="M104 248v692q0 102 73 175t175 73h713q104 0 177 -73t73 -175v-430h-1043v-262q0 -33 23.5 -56.5t56.5 -23.5h963v-168h-963q-102 0 -175 73t-73 175zM272 678h873v262q0 33 -23.5 56.5t-56.5 23.5h-713q-33 0 -56.5 -23.5t-23.5 -56.5v-262z" />
<glyph unicode="f" horiz-adv-x="833" d="M109 0v1329q0 104 71.5 176t175.5 72h435v-168h-435q-33 0 -56.5 -23.5t-23.5 -56.5v-141h515v-168h-515v-1020h-167z" />
<glyph unicode="g" horiz-adv-x="1398" d="M84 248v692q0 102 72.5 175t175.5 73h712q104 0 176 -73t72 -175v-1159q0 -104 -71.5 -177t-176.5 -73h-741v170h741q33 0 56.5 23.5t23.5 56.5v219h-792q-102 0 -175 73t-73 175zM252 248q0 -33 23.5 -56.5t56.5 -23.5h712q33 0 56.5 23.5t23.5 56.5v692 q0 33 -23.5 56.5t-56.5 23.5h-712q-33 0 -56.5 -23.5t-23.5 -56.5v-692z" />
<glyph unicode="h" horiz-adv-x="1368" d="M111 0v1577h168v-389h794q102 0 175 -73t73 -175v-940h-168v940q0 33 -23.5 56.5t-56.5 23.5h-713q-33 0 -57 -23.5t-24 -56.5v-940h-168z" />
<glyph unicode="i" horiz-adv-x="425" d="M106 0v1188h168v-1188h-168zM106 1409v168h168v-168h-168z" />
<glyph unicode="j" horiz-adv-x="489" d="M-383 -328h502q33 0 56.5 23.5t23.5 56.5v1436h170v-1436q0 -104 -73 -177t-177 -73h-502v170zM199 1409v168h170v-168h-170z" />
<glyph unicode="k" horiz-adv-x="1323" d="M111 0v1577h168v-899h327l467 510h221l-538 -594l536 -594h-219l-467 510h-327v-510h-168z" />
<glyph unicode="l" horiz-adv-x="618" d="M106 248v1329h168v-1329q0 -33 24 -56.5t56 -23.5h201v-168h-201q-102 0 -175 73t-73 175z" />
<glyph unicode="m" horiz-adv-x="2002" d="M111 0v1188h1568q104 0 176 -73t72 -175v-940h-166v940q0 33 -24.5 56.5t-57.5 23.5h-493q-33 0 -56.5 -23.5t-23.5 -56.5v-940h-170v940q0 33 -23.5 56.5t-56.5 23.5h-496q-33 0 -56 -23.5t-23 -56.5v-940h-170z" />
<glyph unicode="n" horiz-adv-x="1425" d="M111 0v1188h962q102 0 175 -73t73 -175v-940h-168v940q0 33 -23.5 56.5t-56.5 23.5h-713q-33 0 -57 -23.5t-24 -56.5v-940h-168z" />
<glyph unicode="o" horiz-adv-x="1417" d="M104 248v692q0 102 73 175t175 73h713q104 0 177 -73t73 -175v-692q0 -102 -73 -175t-177 -73h-713q-102 0 -175 73t-73 175zM272 248q0 -33 23.5 -56.5t56.5 -23.5h713q33 0 56.5 23.5t23.5 56.5v692q0 33 -23.5 56.5t-56.5 23.5h-713q-33 0 -56.5 -23.5t-23.5 -56.5 v-692z" />
<glyph unicode="p" horiz-adv-x="1359" d="M111 -471v1659h962q102 0 175 -73t73 -175v-692q0 -102 -72.5 -175t-175.5 -73h-794v-471h-168zM279 248q0 -33 24.5 -56.5t56.5 -23.5h713q33 0 56.5 23.5t23.5 56.5v692q0 33 -23.5 56.5t-56.5 23.5h-713q-33 0 -57 -23.5t-24 -56.5v-692z" />
<glyph unicode="q" horiz-adv-x="1359" d="M41 248v692q0 102 72.5 175t177.5 73h960v-1659h-168v471h-792q-104 0 -177 73t-73 175zM211 248q0 -33 23.5 -56.5t56.5 -23.5h713q33 0 56 23.5t23 56.5v692q0 33 -23.5 56.5t-55.5 23.5h-713q-33 0 -56.5 -23.5t-23.5 -56.5v-692z" />
<glyph unicode="r" horiz-adv-x="1048" d="M106 0v940q0 102 73 175t175 73h668v-168h-668q-33 0 -56.5 -23.5t-23.5 -56.5v-940h-168z" />
<glyph unicode="s" horiz-adv-x="1404" d="M98 248v16h168v-16q0 -33 23.5 -56.5t56.5 -23.5h713q33 0 56.5 23.5t23.5 56.5v182q0 33 -23.5 56.5t-56.5 23.5h-713q-102 0 -175 72.5t-73 175.5v182q0 102 73 175t175 73h713q104 0 177 -73t73 -175v-16h-170v16q0 33 -23.5 56.5t-56.5 23.5h-713q-33 0 -56.5 -23.5 t-23.5 -56.5v-182q0 -33 23.5 -56.5t56.5 -23.5h713q104 0 177 -73t73 -175v-182q0 -102 -73 -175t-177 -73h-713q-102 0 -175 73t-73 175z" />
<glyph unicode="t" horiz-adv-x="839" d="M109 248v1329h167v-389h515v-168h-515v-772q0 -33 24 -56.5t56 -23.5h435v-168h-435q-104 0 -175.5 73t-71.5 175z" />
<glyph unicode="u" horiz-adv-x="1423" d="M109 248v940h167v-940q0 -33 24 -56.5t56 -23.5h713q33 0 57.5 23.5t24.5 56.5v940h168v-940q0 -102 -72.5 -175t-177.5 -73h-713q-102 0 -174.5 73t-72.5 175z" />
<glyph unicode="v" horiz-adv-x="1617" d="M43 1188h197l557 -1024l557 1024h196l-657 -1188h-195z" />
<glyph unicode="w" horiz-adv-x="2193" d="M72 1188h180l360 -885l383 885h222l407 -883l336 883h182l-448 -1188h-146l-442 981l-420 -981h-147z" />
<glyph unicode="x" horiz-adv-x="1417" d="M94 0l496 604l-496 584h221l385 -451l387 451h220l-496 -584l498 -604h-222l-387 475l-385 -475h-221z" />
<glyph unicode="y" horiz-adv-x="1402" d="M86 248v936h168v-936q0 -33 23.5 -56.5t56.5 -23.5h713q33 0 56 23.5t23 56.5v936h168v-1405q0 -104 -71.5 -177t-175.5 -73h-742v170h742q33 0 56 23.5t23 56.5v221h-792q-102 0 -175 73t-73 175z" />
<glyph unicode="z" horiz-adv-x="1429" d="M111 0v229l1026 791h-1026v168h1210v-230l-1026 -790h1026v-168h-1210z" />
<glyph unicode="{" horiz-adv-x="591" d="M47 641v197l96 51v336q0 104 73 177t175 73h60v-170h-60q-33 0 -56.5 -24t-23.5 -56v-351l-172 -137l172 -141v-348q0 -33 23.5 -56.5t56.5 -23.5h60v-168h-60q-102 0 -175 72.5t-73 175.5v334q-12 8 -47 29.5t-49 29.5z" />
<glyph unicode="|" horiz-adv-x="438" d="M111 -236v1960h168v-1960h-168z" />
<glyph unicode="}" horiz-adv-x="591" d="M104 0v168h60q33 0 56.5 23.5t23.5 56.5v346l172 141l-172 135v355q0 33 -23.5 56.5t-56.5 23.5h-60v170h60q102 0 175 -73t73 -177v-336q16 -8 51 -29.5t43 -25.5v-195l-94 -59v-332q0 -102 -73 -175t-175 -73h-60z" />
<glyph unicode="~" horiz-adv-x="827" d="M49 631v76q55 18 127 18q82 0 219 -68.5t209 -76.5h4q66 0 135 32v-84q-72 -27 -135 -26q-72 0 -209 72.5t-223 72.5q-80 0 -127 -16z" />
<glyph unicode="&#xa1;" horiz-adv-x="430" d="M109 0v1059h167v-1059h-167zM109 1321v170h167v-170h-167z" />
<glyph unicode="&#xa2;" horiz-adv-x="1302" d="M68 248v713q0 104 71.5 176.5t175.5 72.5h273v277h168v-277h516v-170h-516v-872h516v-168h-516v-236h-168v236h-273q-104 0 -175.5 73t-71.5 175zM236 248q0 -33 23.5 -56.5t55.5 -23.5h273v872h-273q-33 0 -56 -23.5t-23 -55.5v-713z" />
<glyph unicode="&#xa3;" horiz-adv-x="1503" d="M80 0v168h215v494h-215v167h215v396q0 104 72.5 177t177.5 73h620q104 0 177 -73t73 -177v-31h-170v31q0 33 -23.5 56.5t-56.5 23.5h-620q-33 0 -56.5 -24t-23.5 -56v-396h721v-167h-721v-494h950v-168h-1335z" />
<glyph unicode="&#xa8;" horiz-adv-x="788" d="M111 1786v168h170v-168h-170zM479 1786v168h168v-168h-168z" />
<glyph unicode="&#xaa;" horiz-adv-x="1421" d="M106 248v430h1041v262q0 33 -23.5 56.5t-56.5 23.5h-961v168h961q104 0 177 -73t73 -175v-940h-963q-102 0 -175 73t-73 175zM274 248q0 -33 24 -56.5t56 -23.5h793v342h-873v-262z" />
<glyph unicode="&#xad;" horiz-adv-x="1058" d="M121 522v168h799v-168h-799z" />
<glyph unicode="&#xb0;" horiz-adv-x="899" d="M92 1069v172q0 104 73 177t177 73h193q104 0 176.5 -72.5t72.5 -177.5v-172q0 -102 -72.5 -175t-176.5 -73h-193q-104 0 -177 73t-73 175zM217 1026q0 -33 23.5 -56.5t56.5 -23.5h283q33 0 56 23.5t23 56.5v258q0 33 -23.5 56.5t-55.5 23.5h-283q-33 0 -56.5 -23.5 t-23.5 -56.5v-258z" />
<glyph unicode="&#xb2;" horiz-adv-x="1699" d="M117 0v553q0 104 71.5 176t176.5 72h993q33 0 56.5 23.5t23.5 56.5v346q0 33 -23.5 56.5t-56.5 23.5h-993q-33 0 -56.5 -23.5t-23.5 -56.5v-58h-168v58q0 104 71.5 177t176.5 73h993q102 0 175 -73t73 -177v-346q0 -102 -73 -175t-175 -73h-993q-33 0 -56.5 -23.5 t-23.5 -56.5v-305q0 -33 23.5 -56.5t56.5 -23.5h1241v-168h-1489z" />
<glyph unicode="&#xb3;" horiz-adv-x="1691" d="M109 248v33h170v-33q0 -33 23.5 -56.5t55.5 -23.5h994q33 0 56.5 23.5t23.5 56.5v342q0 33 -24 56.5t-56 23.5h-961v168h895q33 0 56.5 23.5t23.5 56.5v309q0 33 -23.5 56.5t-56.5 23.5h-928q-33 0 -56 -23.5t-23 -56.5v-53h-170v53q0 104 72.5 177t176.5 73h928 q104 0 176 -73t72 -177v-309q0 -53 -25 -107l9 -37q82 -76 81 -184v-342q0 -102 -72.5 -175t-174.5 -73h-994q-104 0 -176.5 73t-72.5 175z" />
<glyph unicode="&#xb4;" horiz-adv-x="436" d="M68 1786l71 285h162l-70 -285h-163z" />
<glyph unicode="&#xb6;" horiz-adv-x="1705" d="M115 803v436q0 104 71.5 177t175.5 73h1242v-1489h-168v555h-283v-555h-168v555h-623q-104 0 -175.5 73t-71.5 175zM283 803q0 -33 23.5 -56.5t55.5 -23.5h623v596h-623q-33 0 -56 -23.5t-23 -56.5v-436zM1153 723h283v596h-283v-596z" />
<glyph unicode="&#xb8;" horiz-adv-x="436" d="M68 -350l71 284h162l-70 -284h-163z" />
<glyph unicode="&#xb9;" horiz-adv-x="800" d="M2 1014l387 461h229v-1475h-169v1286q-29 -37 -114 -137l-114 -135h-219z" />
<glyph unicode="&#xba;" horiz-adv-x="1417" d="M104 248v692q0 102 73 175t175 73h713q104 0 177 -73t73 -175v-692q0 -102 -73 -175t-177 -73h-713q-102 0 -175 73t-73 175zM272 248q0 -33 23.5 -56.5t56.5 -23.5h713q33 0 56.5 23.5t23.5 56.5v692q0 33 -23.5 56.5t-56.5 23.5h-713q-33 0 -56.5 -23.5t-23.5 -56.5 v-692z" />
<glyph unicode="&#xbf;" horiz-adv-x="1382" d="M39 248v397q0 104 71.5 177t176.5 73h559q33 0 56.5 23.5t23.5 56.5v98h168v-98q0 -104 -72 -177t-176 -73h-559q-33 0 -56.5 -23.5t-23.5 -56.5v-397q0 -33 23.5 -56.5t56.5 -23.5h1040q0 -59 4 -105.5t8 -62.5l4 -16l-1056 16q-104 0 -176 73t-72 175zM926 1321v170 h168v-170h-168z" />
<glyph unicode="&#xc0;" horiz-adv-x="1712" d="M119 0v1229q0 102 71.5 174t174.5 72h983q102 0 173.5 -72t71.5 -174v-1229h-166v539h-1142v-539h-166zM285 705h1142v524q0 33 -23.5 56.5t-55.5 23.5h-983q-33 0 -56.5 -23.5t-23.5 -56.5v-524zM705 2056h165l70 -284h-164z" />
<glyph unicode="&#xc1;" horiz-adv-x="1712" d="M119 0v1229q0 102 71.5 174t174.5 72h983q102 0 173.5 -72t71.5 -174v-1229h-166v539h-1142v-539h-166zM285 705h1142v524q0 33 -23.5 56.5t-55.5 23.5h-983q-33 0 -56.5 -23.5t-23.5 -56.5v-524zM705 1769l71 285h162l-70 -285h-163z" />
<glyph unicode="&#xc2;" horiz-adv-x="1712" d="M119 0v1229q0 102 71.5 174t174.5 72h983q102 0 173.5 -72t71.5 -174v-1229h-166v539h-1142v-539h-166zM285 705h1142v524q0 33 -23.5 56.5t-55.5 23.5h-983q-33 0 -56.5 -23.5t-23.5 -56.5v-524zM606 1769l146 240h120l146 -240h-86l-119 175l-123 -175h-84z" />
<glyph unicode="&#xc3;" horiz-adv-x="1712" d="M119 0v1229q0 102 71.5 174t174.5 72h983q102 0 173.5 -72t71.5 -174v-1229h-166v539h-1142v-539h-166zM285 705h1142v524q0 33 -23.5 56.5t-55.5 23.5h-983q-33 0 -56.5 -23.5t-23.5 -56.5v-524zM496 1911v96q55 18 127 18q82 0 219 -68.5t209 -78.5h4q61 0 135 35v-105 q-78 -29 -135 -28q-72 0 -209 73.5t-223 73.5q-80 0 -127 -16z" />
<glyph unicode="&#xc4;" horiz-adv-x="1712" d="M119 0v1229q0 102 71.5 174t174.5 72h983q102 0 173.5 -72t71.5 -174v-1229h-166v539h-1142v-539h-166zM285 705h1142v524q0 33 -23.5 56.5t-55.5 23.5h-983q-33 0 -56.5 -23.5t-23.5 -56.5v-524zM571 1751v168h170v-168h-170zM940 1751v168h168v-168h-168z" />
<glyph unicode="&#xc5;" horiz-adv-x="1712" d="M119 0v1229q0 102 71.5 174t174.5 72h983q102 0 173.5 -72t71.5 -174v-1229h-166v539h-1142v-539h-166zM285 705h1142v524q0 33 -23.5 56.5t-55.5 23.5h-983q-33 0 -56.5 -23.5t-23.5 -56.5v-524zM688 1790v111q0 45 33 76.5t78 31.5h114q45 0 78 -31.5t33 -76.5v-111 q0 -45 -33 -77t-78 -32h-114q-45 0 -78 32t-33 77zM770 1784q0 -20 18 -21h136q18 0 18 21v123q0 20 -18 20h-136q-18 0 -18 -20v-123z" />
<glyph unicode="&#xc6;" horiz-adv-x="2816" d="M111 0v1229q0 102 71.5 174t173.5 72h2409v-166h-1180v-488h948v-168h-948v-487h1180v-166h-1346v539h-1143v-539h-165zM276 705h1143v524q0 33 -23.5 56.5t-56.5 23.5h-983q-33 0 -56.5 -23.5t-23.5 -56.5v-524z" />
<glyph unicode="&#xc7;" horiz-adv-x="1683" d="M115 246v983q0 102 71.5 174t173.5 72h1225v-166h-1225q-33 0 -56 -23.5t-23 -56.5v-983q0 -33 23.5 -56.5t55.5 -23.5h1225v-166h-661l-70 -285h-164l72 285h-402q-102 0 -173.5 72t-71.5 174z" />
<glyph unicode="&#xc8;" horiz-adv-x="1568" d="M119 0v1475h1345v-166h-1179v-488h948v-168h-948v-487h1179v-166h-1345zM633 2056h166l69 -284h-163z" />
<glyph unicode="&#xc9;" horiz-adv-x="1568" d="M119 0v1475h1345v-166h-1179v-488h948v-168h-948v-487h1179v-166h-1345zM633 1772l72 284h161l-69 -284h-164z" />
<glyph unicode="&#xca;" horiz-adv-x="1568" d="M119 0v1475h1345v-166h-1179v-488h948v-168h-948v-487h1179v-166h-1345zM535 1769l145 240h121l145 -240h-86l-119 175l-123 -175h-83z" />
<glyph unicode="&#xcb;" horiz-adv-x="1568" d="M119 0v1475h1345v-166h-1179v-488h948v-168h-948v-487h1179v-166h-1345zM500 1772v167h170v-167h-170zM868 1772v167h168v-167h-168z" />
<glyph unicode="&#xcc;" horiz-adv-x="450" d="M74 2056h166l69 -284h-164zM117 0v1475h166v-1475h-166z" />
<glyph unicode="&#xcd;" horiz-adv-x="450" d="M74 1772l71 284h162l-69 -284h-164zM117 0v1475h166v-1475h-166z" />
<glyph unicode="&#xce;" horiz-adv-x="450" d="M-25 1769l146 240h121l145 -240h-86l-119 175l-123 -175h-84zM117 0v1475h166v-1475h-166z" />
<glyph unicode="&#xcf;" horiz-adv-x="450" d="M-59 1772v167h170v-167h-170zM117 0v1475h166v-1475h-166zM309 1772v167h168v-167h-168z" />
<glyph unicode="&#xd1;" horiz-adv-x="1703" d="M115 0v1475h227l1081 -1287v1287h166v-1475h-227l-1081 1286v-1286h-166zM492 1911v96q55 18 126 18q82 0 219.5 -68.5t209.5 -78.5h4q61 0 135 35v-105q-78 -29 -135 -28q-72 0 -209 73.5t-224 73.5q-79 0 -126 -16z" />
<glyph unicode="&#xd2;" d="M111 246v983q0 102 71.5 174t173.5 72h983q102 0 174 -72t72 -174v-983q0 -102 -71.5 -174t-174.5 -72h-983q-102 0 -173.5 72t-71.5 174zM276 246q0 -33 24 -56.5t56 -23.5h983q33 0 56.5 23.5t23.5 56.5v983q0 33 -23.5 56.5t-56.5 23.5h-983q-33 0 -56.5 -23.5 t-23.5 -56.5v-983zM696 2056h166l70 -284h-164z" />
<glyph unicode="&#xd3;" d="M111 246v983q0 102 71.5 174t173.5 72h983q102 0 174 -72t72 -174v-983q0 -102 -71.5 -174t-174.5 -72h-983q-102 0 -173.5 72t-71.5 174zM276 246q0 -33 24 -56.5t56 -23.5h983q33 0 56.5 23.5t23.5 56.5v983q0 33 -23.5 56.5t-56.5 23.5h-983q-33 0 -56.5 -23.5 t-23.5 -56.5v-983zM696 1772l72 284h162l-70 -284h-164z" />
<glyph unicode="&#xd4;" d="M111 246v983q0 102 71.5 174t173.5 72h983q102 0 174 -72t72 -174v-983q0 -102 -71.5 -174t-174.5 -72h-983q-102 0 -173.5 72t-71.5 174zM276 246q0 -33 24 -56.5t56 -23.5h983q33 0 56.5 23.5t23.5 56.5v983q0 33 -23.5 56.5t-56.5 23.5h-983q-33 0 -56.5 -23.5 t-23.5 -56.5v-983zM598 1769l145 240h121l146 -240h-86l-119 175l-123 -175h-84z" />
<glyph unicode="&#xd5;" d="M111 246v983q0 102 71.5 174t173.5 72h983q102 0 174 -72t72 -174v-983q0 -102 -71.5 -174t-174.5 -72h-983q-102 0 -173.5 72t-71.5 174zM276 246q0 -33 24 -56.5t56 -23.5h983q33 0 56.5 23.5t23.5 56.5v983q0 33 -23.5 56.5t-56.5 23.5h-983q-33 0 -56.5 -23.5 t-23.5 -56.5v-983zM487 1911v96q55 18 127 18q82 0 219.5 -68.5t208.5 -78.5h5q61 0 135 35v-105q-78 -29 -135 -28q-72 0 -209.5 73.5t-223.5 73.5q-80 0 -127 -16z" />
<glyph unicode="&#xd6;" d="M111 246v983q0 102 71.5 174t173.5 72h983q102 0 174 -72t72 -174v-983q0 -102 -71.5 -174t-174.5 -72h-983q-102 0 -173.5 72t-71.5 174zM276 246q0 -33 24 -56.5t56 -23.5h983q33 0 56.5 23.5t23.5 56.5v983q0 33 -23.5 56.5t-56.5 23.5h-983q-33 0 -56.5 -23.5 t-23.5 -56.5v-983zM563 1772v167h170v-167h-170zM932 1772v167h168v-167h-168z" />
<glyph unicode="&#xd7;" horiz-adv-x="1118" d="M109 1036h221l215 -295l217 295h217l-324 -420l324 -421h-217l-217 294l-215 -294h-219l323 421z" />
<glyph unicode="&#xd9;" d="M111 246v1229h165v-1229q0 -33 24 -56.5t56 -23.5h983q33 0 56.5 23.5t23.5 56.5v1229h166v-1229q0 -102 -71.5 -174t-174.5 -72h-983q-102 0 -173.5 72t-71.5 174zM696 2056h166l70 -284h-164z" />
<glyph unicode="&#xda;" d="M111 246v1229h165v-1229q0 -33 24 -56.5t56 -23.5h983q33 0 56.5 23.5t23.5 56.5v1229h166v-1229q0 -102 -71.5 -174t-174.5 -72h-983q-102 0 -173.5 72t-71.5 174zM696 1772l72 284h162l-70 -284h-164z" />
<glyph unicode="&#xdb;" d="M111 246v1229h165v-1229q0 -33 24 -56.5t56 -23.5h983q33 0 56.5 23.5t23.5 56.5v1229h166v-1229q0 -102 -71.5 -174t-174.5 -72h-983q-102 0 -173.5 72t-71.5 174zM598 1769l145 240h121l146 -240h-86l-119 175l-123 -175h-84z" />
<glyph unicode="&#xdc;" d="M111 246v1229h165v-1229q0 -33 24 -56.5t56 -23.5h983q33 0 56.5 23.5t23.5 56.5v1229h166v-1229q0 -102 -71.5 -174t-174.5 -72h-983q-102 0 -173.5 72t-71.5 174zM563 1772v167h170v-167h-170zM932 1772v167h168v-167h-168z" />
<glyph unicode="&#xdd;" horiz-adv-x="1650" d="M35 1475h190l572 -721l565 721h194l-677 -920v-555h-166v555zM674 1772l71 284h162l-69 -284h-164z" />
<glyph unicode="&#xdf;" horiz-adv-x="1705" d="M117 0v1241q0 104 71.5 177t176.5 73h993q82 0 152.5 -62.5t95.5 -146.5v-350q0 -82 -62 -166q61 -80 62 -164v-354q0 -102 -73 -175t-175 -73h-776v168h776q33 0 56.5 23.5t23.5 56.5v354q0 33 -23.5 56.5t-56.5 23.5h-776v145h776q33 0 56.5 23.5t23.5 56.5v332 q0 33 -23.5 56.5t-56.5 23.5h-993q-33 0 -56.5 -23.5t-23.5 -56.5v-1239h-168z" />
<glyph unicode="&#xe0;" horiz-adv-x="1484" d="M106 248v430h1041v262q0 33 -23.5 56.5t-56.5 23.5h-961v168h961q104 0 177 -73t73 -175v-940h-963q-102 0 -175 73t-73 175zM274 248q0 -33 24 -56.5t56 -23.5h793v342h-873v-262zM590 1847h166l69 -284h-163z" />
<glyph unicode="&#xe1;" horiz-adv-x="1484" d="M106 248v430h1041v262q0 33 -23.5 56.5t-56.5 23.5h-961v168h961q104 0 177 -73t73 -175v-940h-963q-102 0 -175 73t-73 175zM274 248q0 -33 24 -56.5t56 -23.5h793v342h-873v-262zM590 1563l72 284h161l-69 -284h-164z" />
<glyph unicode="&#xe2;" horiz-adv-x="1484" d="M106 248v430h1041v262q0 33 -23.5 56.5t-56.5 23.5h-961v168h961q104 0 177 -73t73 -175v-940h-963q-102 0 -175 73t-73 175zM274 248q0 -33 24 -56.5t56 -23.5h793v342h-873v-262zM492 1563l145 239h121l145 -239h-86l-119 174l-123 -174h-83z" />
<glyph unicode="&#xe3;" horiz-adv-x="1484" d="M106 248v430h1041v262q0 33 -23.5 56.5t-56.5 23.5h-961v168h961q104 0 177 -73t73 -175v-940h-963q-102 0 -175 73t-73 175zM274 248q0 -33 24 -56.5t56 -23.5h793v342h-873v-262zM381 1700v96q55 18 127 19q82 0 219 -69t209 -79h4q61 0 135 35v-105q-78 -29 -135 -28 q-72 0 -209 73.5t-223 73.5q-80 0 -127 -16z" />
<glyph unicode="&#xe4;" horiz-adv-x="1484" d="M106 248v430h1041v262q0 33 -23.5 56.5t-56.5 23.5h-961v168h961q104 0 177 -73t73 -175v-940h-963q-102 0 -175 73t-73 175zM274 248q0 -33 24 -56.5t56 -23.5h793v342h-873v-262zM457 1563v168h170v-168h-170zM825 1563v168h168v-168h-168z" />
<glyph unicode="&#xe5;" horiz-adv-x="1484" d="M106 248v430h1041v262q0 33 -23.5 56.5t-56.5 23.5h-961v168h961q104 0 177 -73t73 -175v-940h-963q-102 0 -175 73t-73 175zM274 248q0 -33 24 -56.5t56 -23.5h793v342h-873v-262zM573 1579v111q0 45 33 76.5t78 31.5h115q45 0 77.5 -31.5t32.5 -76.5v-111 q0 -45 -32.5 -77t-77.5 -32h-115q-45 0 -78 32t-33 77zM655 1573q0 -20 19 -21h135q18 0 18 21v123q0 20 -18 20h-135q-18 0 -19 -20v-123z" />
<glyph unicode="&#xe6;" horiz-adv-x="2412" d="M109 248v430h1040v262q0 33 -23.5 56.5t-56.5 23.5h-960v168h2000q104 0 176 -73t72 -175v-430h-1040v-270q2 -31 25.5 -51.5t54.5 -20.5h960v-168h-2001q-104 0 -175.5 73t-71.5 175zM276 248q0 -33 24 -56.5t56 -23.5h793v342h-873v-262zM1317 678h872v262 q0 33 -23.5 56.5t-56.5 23.5h-712q-33 0 -56.5 -23.5t-23.5 -56.5v-262z" />
<glyph unicode="&#xe7;" horiz-adv-x="1419" d="M104 248v692q0 102 73 175t175 73h959v-168h-959q-33 0 -56.5 -23.5t-23.5 -56.5v-692q0 -33 23.5 -56.5t56.5 -23.5h963v-168h-524l-70 -285h-164l72 285h-277q-102 0 -175 73t-73 175z" />
<glyph unicode="&#xe8;" horiz-adv-x="1306" d="M104 248v692q0 102 73 175t175 73h713q104 0 177 -73t73 -175v-430h-1043v-262q0 -33 23.5 -56.5t56.5 -23.5h963v-168h-963q-102 0 -175 73t-73 175zM272 678h873v262q0 33 -23.5 56.5t-56.5 23.5h-713q-33 0 -56.5 -23.5t-23.5 -56.5v-262zM502 1847h166l69 -284h-164z " />
<glyph unicode="&#xe9;" horiz-adv-x="1306" d="M104 248v692q0 102 73 175t175 73h713q104 0 177 -73t73 -175v-430h-1043v-262q0 -33 23.5 -56.5t56.5 -23.5h963v-168h-963q-102 0 -175 73t-73 175zM272 678h873v262q0 33 -23.5 56.5t-56.5 23.5h-713q-33 0 -56.5 -23.5t-23.5 -56.5v-262zM502 1565l71 284h162 l-69 -284h-164z" />
<glyph unicode="&#xea;" horiz-adv-x="1306" d="M104 248v692q0 102 73 175t175 73h713q104 0 177 -73t73 -175v-430h-1043v-262q0 -33 23.5 -56.5t56.5 -23.5h963v-168h-963q-102 0 -175 73t-73 175zM272 678h873v262q0 33 -23.5 56.5t-56.5 23.5h-713q-33 0 -56.5 -23.5t-23.5 -56.5v-262zM403 1563l146 239h121 l145 -239h-86l-119 174l-123 -174h-84z" />
<glyph unicode="&#xeb;" horiz-adv-x="1306" d="M104 248v692q0 102 73 175t175 73h713q104 0 177 -73t73 -175v-430h-1043v-262q0 -33 23.5 -56.5t56.5 -23.5h963v-168h-963q-102 0 -175 73t-73 175zM272 678h873v262q0 33 -23.5 56.5t-56.5 23.5h-713q-33 0 -56.5 -23.5t-23.5 -56.5v-262zM369 1563v168h170v-168h-170 zM737 1563v168h168v-168h-168z" />
<glyph unicode="&#xec;" horiz-adv-x="438" d="M33 1849h166l69 -284h-164zM115 0v1188h168v-1188h-168z" />
<glyph unicode="&#xed;" horiz-adv-x="438" d="M100 1563l72 284h162l-70 -284h-164zM104 0v1188h168v-1188h-168z" />
<glyph unicode="&#xee;" horiz-adv-x="438" d="M-31 1563l146 239h121l145 -239h-86l-119 174l-123 -174h-84zM104 0v1188h168v-1188h-168z" />
<glyph unicode="&#xef;" horiz-adv-x="438" d="M-66 1567v168h170v-168h-170zM113 0v1188h168v-1188h-168zM303 1567v168h168v-168h-168z" />
<glyph unicode="&#xf1;" horiz-adv-x="1449" d="M111 0v1188h962q102 0 175 -73t73 -175v-940h-168v940q0 33 -23.5 56.5t-56.5 23.5h-713q-33 0 -57 -23.5t-24 -56.5v-940h-168zM365 1698v96q55 18 127 18q82 0 219 -68.5t209 -78.5h4q61 0 135 35v-105q-78 -29 -135 -28q-72 0 -209 73.5t-223 73.5q-80 0 -127 -16z " />
<glyph unicode="&#xf2;" horiz-adv-x="1417" d="M104 248v692q0 102 73 175t175 73h713q104 0 177 -73t73 -175v-692q0 -102 -73 -175t-177 -73h-713q-102 0 -175 73t-73 175zM272 248q0 -33 23.5 -56.5t56.5 -23.5h713q33 0 56.5 23.5t23.5 56.5v692q0 33 -23.5 56.5t-56.5 23.5h-713q-33 0 -56.5 -23.5t-23.5 -56.5 v-692zM557 1849h166l70 -284h-164z" />
<glyph unicode="&#xf3;" horiz-adv-x="1417" d="M104 248v692q0 102 73 175t175 73h713q104 0 177 -73t73 -175v-692q0 -102 -73 -175t-177 -73h-713q-102 0 -175 73t-73 175zM272 248q0 -33 23.5 -56.5t56.5 -23.5h713q33 0 56.5 23.5t23.5 56.5v692q0 33 -23.5 56.5t-56.5 23.5h-713q-33 0 -56.5 -23.5t-23.5 -56.5 v-692zM557 1565l72 284h162l-70 -284h-164z" />
<glyph unicode="&#xf4;" horiz-adv-x="1417" d="M104 248v692q0 102 73 175t175 73h713q104 0 177 -73t73 -175v-692q0 -102 -73 -175t-177 -73h-713q-102 0 -175 73t-73 175zM272 248q0 -33 23.5 -56.5t56.5 -23.5h713q33 0 56.5 23.5t23.5 56.5v692q0 33 -23.5 56.5t-56.5 23.5h-713q-33 0 -56.5 -23.5t-23.5 -56.5 v-692zM459 1563l145 239h121l145 -239h-86l-118 174l-123 -174h-84z" />
<glyph unicode="&#xf5;" horiz-adv-x="1417" d="M104 248v692q0 102 73 175t175 73h713q104 0 177 -73t73 -175v-692q0 -102 -73 -175t-177 -73h-713q-102 0 -175 73t-73 175zM272 248q0 -33 23.5 -56.5t56.5 -23.5h713q33 0 56.5 23.5t23.5 56.5v692q0 33 -23.5 56.5t-56.5 23.5h-713q-33 0 -56.5 -23.5t-23.5 -56.5 v-692zM348 1698v96q55 18 127 18q82 0 219 -68.5t209 -78.5h4q61 0 135 35v-105q-78 -29 -135 -28q-72 0 -209 73.5t-223 73.5q-80 0 -127 -16z" />
<glyph unicode="&#xf6;" horiz-adv-x="1417" d="M104 248v692q0 102 73 175t175 73h713q104 0 177 -73t73 -175v-692q0 -102 -73 -175t-177 -73h-713q-102 0 -175 73t-73 175zM272 248q0 -33 23.5 -56.5t56.5 -23.5h713q33 0 56.5 23.5t23.5 56.5v692q0 33 -23.5 56.5t-56.5 23.5h-713q-33 0 -56.5 -23.5t-23.5 -56.5 v-692zM424 1567v168h170v-168h-170zM793 1567v168h168v-168h-168z" />
<glyph unicode="&#xf7;" horiz-adv-x="1040" d="M37 522v168h971v-168h-971zM440 2v168h168v-168h-168zM440 1018v168h168v-168h-168z" />
<glyph unicode="&#xf9;" horiz-adv-x="1423" d="M109 248v940h167v-940q0 -33 24 -56.5t56 -23.5h713q33 0 57.5 23.5t24.5 56.5v940h168v-940q0 -102 -72.5 -175t-177.5 -73h-713q-102 0 -174.5 73t-72.5 175zM559 1849h166l70 -284h-164z" />
<glyph unicode="&#xfa;" horiz-adv-x="1423" d="M109 248v940h167v-940q0 -33 24 -56.5t56 -23.5h713q33 0 57.5 23.5t24.5 56.5v940h168v-940q0 -102 -72.5 -175t-177.5 -73h-713q-102 0 -174.5 73t-72.5 175zM559 1565l72 284h162l-70 -284h-164z" />
<glyph unicode="&#xfb;" horiz-adv-x="1423" d="M109 248v940h167v-940q0 -33 24 -56.5t56 -23.5h713q33 0 57.5 23.5t24.5 56.5v940h168v-940q0 -102 -72.5 -175t-177.5 -73h-713q-102 0 -174.5 73t-72.5 175zM461 1565l145 239h121l145 -239h-86l-118 174l-123 -174h-84z" />
<glyph unicode="&#xfc;" horiz-adv-x="1423" d="M109 248v940h167v-940q0 -33 24 -56.5t56 -23.5h713q33 0 57.5 23.5t24.5 56.5v940h168v-940q0 -102 -72.5 -175t-177.5 -73h-713q-102 0 -174.5 73t-72.5 175zM426 1563v168h170v-168h-170zM795 1563v168h168v-168h-168z" />
<glyph unicode="&#xfd;" horiz-adv-x="1409" d="M86 248v936h168v-936q0 -33 23.5 -56.5t56.5 -23.5h713q33 0 56 23.5t23 56.5v936h168v-1405q0 -104 -71.5 -177t-175.5 -73h-742v170h742q33 0 56 23.5t23 56.5v221h-792q-102 0 -175 73t-73 175zM553 1565l72 284h161l-69 -284h-164z" />
<glyph unicode="&#xff;" horiz-adv-x="1409" d="M86 248v936h168v-936q0 -33 23.5 -56.5t56.5 -23.5h713q33 0 56 23.5t23 56.5v936h168v-1405q0 -104 -71.5 -177t-175.5 -73h-742v170h742q33 0 56 23.5t23 56.5v221h-792q-102 0 -175 73t-73 175zM420 1567v168h170v-168h-170zM788 1567v168h168v-168h-168z" />
<glyph unicode="&#x152;" horiz-adv-x="2813" d="M109 246v983q0 102 71.5 174t173.5 72h2409v-166h-1180v-488h948v-168h-948v-487h1180v-166h-2409q-102 0 -173.5 72t-71.5 174zM274 246q0 -33 24 -56.5t56 -23.5h983q33 0 56.5 23.5t23.5 56.5v983q0 33 -23.5 56.5t-56.5 23.5h-983q-33 0 -56.5 -23.5t-23.5 -56.5 v-983z" />
<glyph unicode="&#x153;" horiz-adv-x="2410" d="M106 248v692q0 102 72 175t176 73h1753q104 0 176 -73t72 -175v-430h-1040v-262q0 -33 23.5 -56.5t56.5 -23.5h960v-168h-2001q-104 0 -176 73t-72 175zM274 248q0 -33 24 -56.5t56 -23.5h713q33 0 56.5 23.5t23.5 56.5v692q0 33 -23.5 56.5t-56.5 23.5h-713 q-33 0 -56.5 -23.5t-23.5 -56.5v-692zM1315 678h872v262q0 33 -23.5 56.5t-56.5 23.5h-712q-33 0 -56.5 -23.5t-23.5 -56.5v-262z" />
<glyph unicode="&#x178;" horiz-adv-x="1650" d="M35 1475h190l572 -721l565 721h194l-677 -920v-555h-166v555zM541 1772v167h170v-167h-170zM909 1772v167h168v-167h-168z" />
<glyph unicode="&#x2c6;" horiz-adv-x="614" d="M57 1784l146 239h121l145 -239h-86l-119 174l-123 -174h-84z" />
<glyph unicode="&#x2dc;" horiz-adv-x="825" d="M47 1925v96q55 18 127 19q82 0 219 -68.5t209 -79.5h4q61 0 135 35v-104q-78 -29 -135 -29q-72 0 -209 74t-223 74q-80 -1 -127 -17z" />
<glyph unicode="&#x2000;" horiz-adv-x="1034" />
<glyph unicode="&#x2001;" horiz-adv-x="2070" />
<glyph unicode="&#x2002;" horiz-adv-x="1034" />
<glyph unicode="&#x2003;" horiz-adv-x="2070" />
<glyph unicode="&#x2004;" horiz-adv-x="690" />
<glyph unicode="&#x2005;" horiz-adv-x="516" />
<glyph unicode="&#x2006;" horiz-adv-x="344" />
<glyph unicode="&#x2007;" horiz-adv-x="344" />
<glyph unicode="&#x2008;" horiz-adv-x="258" />
<glyph unicode="&#x2009;" horiz-adv-x="413" />
<glyph unicode="&#x200a;" horiz-adv-x="114" />
<glyph unicode="&#x2010;" horiz-adv-x="1058" d="M121 522v168h799v-168h-799z" />
<glyph unicode="&#x2011;" horiz-adv-x="1058" d="M121 522v168h799v-168h-799z" />
<glyph unicode="&#x2012;" horiz-adv-x="1058" d="M121 522v168h799v-168h-799z" />
<glyph unicode="&#x2013;" horiz-adv-x="1449" d="M111 520v168h1230v-168h-1230z" />
<glyph unicode="&#x2014;" horiz-adv-x="1683" d="M111 520v168h1476v-168h-1476z" />
<glyph unicode="&#x2018;" horiz-adv-x="344" d="M68 1030v201q0 82 47 147.5t123 87.5v-436h-170z" />
<glyph unicode="&#x2019;" horiz-adv-x="339" d="M111 1040v437h168v-201q0 -82 -47 -147.5t-121 -88.5z" />
<glyph unicode="&#x201c;" horiz-adv-x="743" d="M96 1028v201q0 82 47 147.5t123 87.5v-436h-170zM467 1028v201q0 82 46 147.5t122 87.5v-436h-168z" />
<glyph unicode="&#x201d;" horiz-adv-x="743" d="M111 1040v437h170v-201q0 -82 -47 -147.5t-123 -88.5zM481 1040v437h168v-201q0 -82 -47 -147.5t-121 -88.5z" />
<glyph unicode="&#x2022;" horiz-adv-x="759" d="M295 723v43q0 59 57 59h51q59 0 60 -59v-43q0 -57 -60 -57h-51q-57 0 -57 57z" />
<glyph unicode="&#x2026;" horiz-adv-x="1175" d="M111 0v168h168v-168h-168zM498 0v168h168v-168h-168zM883 0v168h170v-168h-170z" />
<glyph unicode="&#x202f;" horiz-adv-x="413" />
<glyph unicode="&#x2039;" horiz-adv-x="968" d="M10 508v199l824 473v-195l-656 -379l656 -379v-194z" />
<glyph unicode="&#x203a;" horiz-adv-x="972" d="M121 29v194l655 379l-655 379v195l823 -474v-198z" />
<glyph unicode="&#x205f;" horiz-adv-x="516" />
<glyph unicode="&#x20ac;" horiz-adv-x="1636" d="M72 471v168h215v211h-215v170h215v207q0 104 72.5 177t177.5 73h1022v-170h-1022q-33 0 -56.5 -23.5t-23.5 -56.5v-207h868v-170h-868v-211h868v-168h-868v-223q0 -33 23.5 -56.5t56.5 -23.5h1022v-168h-1022q-104 0 -177 72.5t-73 175.5v223h-215z" />
<glyph unicode="&#x2122;" horiz-adv-x="3454" d="M1669 0v1475h227l612 -730l613 730h227v-1475h-166v1286l-674 -801l-673 801v-1286h-166zM41 1309v166h1475v-166h-654v-1309h-166v1309h-655z" />
<glyph unicode="&#xe000;" horiz-adv-x="1190" d="M0 1190h1190v-1190h-1190v1190z" />
<glyph unicode="&#xfb01;" horiz-adv-x="1259" d="M940 0v1188h168v-1188h-168zM940 1409v168h168v-168h-168zM109 0v1329q0 104 71.5 176t175.5 72h435v-168h-435q-33 0 -56.5 -23.5t-23.5 -56.5v-141h515v-168h-515v-1020h-167z" />
<glyph unicode="&#xfb02;" horiz-adv-x="1452" d="M940 248v1329h168v-1329q0 -33 24 -56.5t56 -23.5h201v-168h-201q-102 0 -175 73t-73 175zM109 0v1329q0 104 71.5 176t175.5 72h435v-168h-435q-33 0 -56.5 -23.5t-23.5 -56.5v-141h515v-168h-515v-1020h-167z" />
<glyph unicode="&#xfb03;" horiz-adv-x="2093" d="M1773 0v1188h168v-1188h-168zM1773 1409v168h168v-168h-168zM943 0v1329q0 104 71.5 176t175.5 72h435v-168h-435q-33 0 -56.5 -23.5t-23.5 -56.5v-141h515v-168h-515v-1020h-167zM109 0v1329q0 104 71.5 176t175.5 72h435v-168h-435q-33 0 -56.5 -23.5t-23.5 -56.5v-141 h515v-168h-515v-1020h-167z" />
<glyph unicode="&#xfb04;" horiz-adv-x="2285" d="M1773 248v1329h168v-1329q0 -33 24 -56.5t56 -23.5h201v-168h-201q-102 0 -175 73t-73 175zM943 0v1329q0 104 71.5 176t175.5 72h435v-168h-435q-33 0 -56.5 -23.5t-23.5 -56.5v-141h515v-168h-515v-1020h-167zM109 0v1329q0 104 71.5 176t175.5 72h435v-168h-435 q-33 0 -56.5 -23.5t-23.5 -56.5v-141h515v-168h-515v-1020h-167z" />
<glyph horiz-adv-x="821" />
</font>
</defs>
</svg>
